<svg xmlns="http://www.w3.org/2000/svg" xml:space="preserve" width="376.557" height="386.001"><font horiz-adv-x="1000" vert-adv-y="90" vert-origin-x="45" vert-origin-y="90"><font-face font-family="Montserrat-SemiBold" underline-position="-75" underline-thickness="50"/><glyph horiz-adv-x="234"/><glyph horiz-adv-x="234"/><glyph d="m594 0-55 136H215L160 0H-3l304 700h163L763 0M267 263h221L378 535z" horiz-adv-x="759" unicode="A"/><glyph d="m594 0-55 136H215L160 0H-3l304 700h163L763 0M267 263h221L378 535m37 381 136-53-136-110-112 10z" horiz-adv-x="759" unicode="Á"/><glyph d="m594 0-55 136H215L160 0H-3l304 700h163L763 0M267 263h221L378 535m2 315c16 0 29 6 40 17s17 25 18 43h98c-2-47-17-84-46-112s-65-42-110-42q-67.5 0-111 42c-29 28-44 65-45 112h98c1-18 7-32 18-43s24-17 40-17" horiz-adv-x="759" unicode="Ă"/><glyph d="m1182 0-55 136H803L748 0H585l304 700h163L1351 0M855 263h221L966 535M380 830c17 0 31 5 42 14s18 20 19 34h97c-2-41-17-74-46-99s-67-37-112-37c-46 0-83 12-112 37s-44 58-46 99h97c1-14 8-25 19-34s25-14 42-14m46 210 112-70-150-82-98 27z" horiz-adv-x="759" unicode="Ắ"/><glyph d="m594 0-55 136H215L160 0H-3l304 700h163L763 0M267 263h221L378 535m79-691c0-25-8-46-23-62-16-16-36-24-61-24-24 0-44 8-59 25-16 16-24 36-24 61s8 46 24 62c15 16 35 24 59 24 25 0 45-8 61-24 15-16 23-37 23-62M374 850c16 0 29 6 40 17s17 25 18 43h98c-2-47-17-84-46-112s-65-42-110-42q-67.5 0-111 42c-29 28-44 65-45 112h98c1-18 7-32 18-43s24-17 40-17" horiz-adv-x="759" unicode="Ặ"/><glyph d="m1175 0-55 136H796L741 0H578l304 700h163L1344 0M848 263h221L959 535M383 830c17 0 31 5 42 14s18 20 19 34h97c-2-41-17-74-46-99s-67-37-112-37c-46 0-83 12-112 37s-44 58-46 99h97c1-14 8-25 19-34s25-14 42-14m-58 210 135-125-97-27-151 82z" horiz-adv-x="759" unicode="Ằ"/><glyph d="m1172 0-55 136H793L738 0H575l304 700h163L1341 0M845 263h221L956 535M380 830c17 0 31 5 42 14s18 20 19 34h97c-2-41-17-74-46-99s-67-37-112-37c-46 0-83 12-112 37s-44 58-46 99h97c1-14 8-25 19-34s25-14 42-14m87 158c0-35-24-68-71-101l-66 26q36 25.5 36 48c0 6-2 11-6 14s-9 4-16 4c-11 0-21-3-30-10l-40 58c33 21 67 31 101 31 29 0 51-7 68-20 16-13 24-30 24-50" horiz-adv-x="759" unicode="Ẳ"/><glyph d="m1196 0-55 136H817L762 0H599l304 700h163L1365 0M869 263h221L980 535M381 831c17 0 31 5 42 14s18 20 19 34h97c-2-41-17-74-46-99s-67-37-112-37c-46 0-83 12-112 37s-44 58-46 99h97c1-14 8-25 19-34s25-14 42-14m82 89c-16 0-31 2-45 7s-30 11-49 20c-2 1-9 4-20 9-12 5-22 7-29 7-11 0-19-3-24-10s-7-17-7-30h-76c0 41 7 72 21 95q21 33 69 33c16 0 32-2 47-7s31-11 49-20c23-11 39-16 48-16 11 0 18 3 23 10s7 17 7 30h77c0-41-7-73-21-95-15-22-38-33-70-33" horiz-adv-x="759" unicode="Ẵ"/><glyph d="m594 0-55 136H215L160 0H-3l304 700h163L763 0M267 263h221L378 535m181 224H437l-57 65-58-65H201l108 148h141z" horiz-adv-x="759" unicode="Â"/><glyph d="m1205 0-55 136H826L771 0H608l304 700h163L1374 0M878 263h221L989 535M578 752H444l-64 57-65-57H181l111 115h174m-41 182 112-70-150-82-98 27z" horiz-adv-x="759" unicode="Ấ"/><glyph d="m594 0-55 136H215L160 0H-3l304 700h163L763 0M267 263h221L378 535m79-691c0-25-8-46-23-62-16-16-36-24-61-24-24 0-44 8-59 25-16 16-24 36-24 61s8 46 24 62c15 16 35 24 59 24 25 0 45-8 61-24 15-16 23-37 23-62m96 915H431l-57 65-58-65H195l108 148h141z" horiz-adv-x="759" unicode="Ậ"/><glyph d="m1192 0-55 136H813L758 0H595l304 700h163L1361 0M865 263h221L976 535M578 752H444l-64 57-65-57H181l111 115h174m-144 182 135-125-97-27-151 82z" horiz-adv-x="759" unicode="Ầ"/><glyph d="m1208 0-55 136H829L774 0H611l304 700h163L1377 0M881 263h221L992 535M594 752H460l-64 57-65-57H197l111 115h174m0 130c0-35-24-68-71-101l-66 26q36 25.5 36 48c0 6-2 11-6 14s-9 4-16 4c-11 0-21-3-30-10l-40 58c33 21 67 31 101 31 29 0 51-7 68-20 16-13 24-30 24-50" horiz-adv-x="759" unicode="Ẩ"/><glyph d="m1185 0-55 136H806L751 0H588l304 700h163L1354 0M858 263h221L969 535M574 752H440l-64 57-65-57H177l111 115h174m-7 34c-16 0-31 2-45 7s-30 11-49 20c-2 1-9 4-20 9-12 5-22 7-29 7-11 0-19-3-24-10s-7-17-7-30h-76c0 41 7 72 21 95q21 33 69 33c16 0 32-2 47-7s31-11 49-20c23-11 39-16 48-16 11 0 18 3 23 10s7 17 7 30h77c0-41-7-73-21-95-15-22-38-33-70-33" horiz-adv-x="759" unicode="Ẫ"/><glyph d="m594 0-55 136H215L160 0H-3l304 700h163L763 0M267 263h221L378 535M276 919l79-157-109-10-91 120m305 47 80-157-109-10-91 120z" horiz-adv-x="759" unicode="Ȁ"/><glyph d="m594 0-55 136H215L160 0H-3l304 700h163L763 0M267 263h221L378 535m-21 293c0-21-6-38-19-51q-19.5-21-51-21c-21 0-37 7-50 21-13 13-20 30-20 51s7 39 20 52 29 20 50 20 38-7 51-20 19-31 19-52m187 0c0-21-7-38-20-51-13-14-30-21-50-21q-31.5 0-51 21c-13 13-20 30-20 51s7 38 20 52c13 13 30 20 51 20 20 0 37-7 50-20 13-14 20-31 20-52" horiz-adv-x="759" unicode="Ä"/><glyph d="m594 0-55 136H215L160 0H-3l304 700h163L763 0M267 263h221L378 535m79-691c0-25-8-46-23-62-16-16-36-24-61-24-24 0-44 8-59 25-16 16-24 36-24 61s8 46 24 62c15 16 35 24 59 24 25 0 45-8 61-24 15-16 23-37 23-62" horiz-adv-x="759" unicode="Ạ"/><glyph d="m594 0-55 136H215L160 0H-3l304 700h163L763 0M267 263h221L378 535m-33 381 104-153-112-10-128 110z" horiz-adv-x="759" unicode="À"/><glyph d="m594 0-55 136H215L160 0H-3l304 700h163L763 0M267 263h221L378 535m114 342c0-22-7-45-22-68-15-24-36-46-61-67l-72 31c13 13 24 26 32 40 7 14 11 27 11 38 0 8-3 14-8 19s-12 7-20 7c-12 0-24-4-37-13l-42 68c35 23 72 35 111 35 33 0 59-8 79-24 19-16 29-38 29-66" horiz-adv-x="759" unicode="Ả"/><glyph d="m594 0-55 136H215L160 0H-3l304 700h163L763 0M267 263h221L378 535M224 759c1 47 16 84 45 112q43.5 42 111 42c45 0 81-14 110-42s44-65 46-112h-98c-1 17-7 32-18 43s-24 17-40 17-29-6-40-17-17-26-18-43z" horiz-adv-x="759" unicode="Ȃ"/><glyph d="m594 0-55 136H215L160 0H-3l304 700h163L763 0M267 263h221L378 535M214 856h332v-94H214z" horiz-adv-x="759" unicode="Ā"/><glyph d="m706-119 29-88q-48-21-93-21c-34 0-61 9-80 27-20 18-30 43-30 74 0 45 21 88 62 127l-55 136H215L160 0H-3l304 700h163L763 0h-30c-28-20-48-38-61-53-13-16-20-32-20-47q0-27 24-27c11 0 21 3 30 8M267 263h221L378 535z" horiz-adv-x="759" unicode="Ą"/><glyph d="m594 0-55 136H215L160 0H-3l304 700h163L763 0M267 263h221L378 535m118 322c0-32-11-59-34-82s-50-34-82-34-59 11-82 34-34 50-34 82c0 31 11 58 34 81s50 34 82 34 59-11 82-34 34-50 34-81m-163 0c0-13 5-23 14-32s20-14 33-14 25 5 34 14 13 19 13 32-4 23-13 32-21 13-34 13-24-4-33-13-14-19-14-32" horiz-adv-x="759" unicode="Å"/><glyph d="m594 0-55 136H215L160 0H-3l304 700h163L763 0M267 263h221L378 535m118 322c0-32-11-59-34-82s-50-34-82-34-59 11-82 34-34 50-34 82c0 31 11 58 34 81s50 34 82 34 59-11 82-34 34-50 34-81m-163 0c0-13 5-23 14-32s20-14 33-14 25 5 34 14 13 19 13 32-4 23-13 32-21 13-34 13-24-4-33-13-14-19-14-32m93 290 112-70-150-82-98 27z" horiz-adv-x="759" unicode="Ǻ"/><glyph d="m594 0-55 136H215L160 0H-3l304 700h163L763 0M267 263h221L378 535m85 220c-15 0-29 3-42 8s-29 12-47 21q-12 7.5-24 12c-8 3-15 5-20 5-10 0-17-3-21-10s-6-18-7-33h-91c0 48 7 85 22 111 14 26 37 39 70 39 15 0 29-2 42-7s29-13 47-22c21-12 35-18 44-18 10 0 17 4 21 11s6 18 7 32h91c0-47-7-84-21-110-15-26-38-39-71-39" horiz-adv-x="759" unicode="Ã"/><glyph d="M652 132h386V0H495v154H245L162 0H-3l401 700h629V569H652V417h338V286H652m-342-12h185v300h-22z" horiz-adv-x="1085" unicode="Æ"/><glyph d="M652 132h386V0H495v154H245L162 0H-3l401 700h629V569H652V417h338V286H652m-342-12h185v300h-22m246 342 136-53-136-110-112 10z" horiz-adv-x="1085" unicode="Ǽ"/><glyph d="M649 525c0-37-11-70-32-97-22-28-52-47-89-57 45-9 81-29 107-60q39-48 39-117c0-60-24-107-71-142S491 0 410 0H77v700h322c77 0 138-16 183-47s67-74 67-128m-162-29c0 24-8 43-25 56s-41 20-71 19H235V418h156c30 0 54 7 71 21 17 13 25 32 25 57m24-282c0 25-11 45-32 60s-51 22-88 21H235V129h156c37 0 67 8 88 23s32 35 32 62" horiz-adv-x="712" unicode="B"/><glyph d="M402 573c-39 0-75-10-108-29s-58-46-77-79-28-70-28-111 9-78 28-111c19-34 44-61 77-80q49.5-30 108-30c31 0 63 8 96 23 32 15 61 35 86 60l93-101c-37-39-81-69-131-92-51-23-101-34-152-34-69 0-131 16-187 48-56 31-100 75-132 130S27 284 27 352c0 67 16 128 49 183q49.5 82.5 135 129c57 31 120 47 189 47 51 0 101-10 150-31s91-50 126-86l-92-113c-24 29-52 51-84 68-33 16-65 24-98 24" horiz-adv-x="694" unicode="C"/><glyph d="M402 573c-39 0-75-10-108-29s-58-46-77-79-28-70-28-111 9-78 28-111c19-34 44-61 77-80q49.5-30 108-30c31 0 63 8 96 23 32 15 61 35 86 60l93-101c-37-39-81-69-131-92-51-23-101-34-152-34-69 0-131 16-187 48-56 31-100 75-132 130S27 284 27 352c0 67 16 128 49 183q49.5 82.5 135 129c57 31 120 47 189 47 51 0 101-10 150-31s91-50 126-86l-92-113c-24 29-52 51-84 68-33 16-65 24-98 24m45 343 136-53-136-110-112 10z" horiz-adv-x="694" unicode="Ć"/><glyph d="M402 573c-39 0-75-10-108-29s-58-46-77-79-28-70-28-111 9-78 28-111c19-34 44-61 77-80q49.5-30 108-30c31 0 63 8 96 23 32 15 61 35 86 60l93-101c-37-39-81-69-131-92-51-23-101-34-152-34-69 0-131 16-187 48-56 31-100 75-132 130S27 284 27 352c0 67 16 128 49 183q49.5 82.5 135 129c57 31 120 47 189 47 51 0 101-10 150-31s91-50 126-86l-92-113c-24 29-52 51-84 68-33 16-65 24-98 24m48 333h121L463 758H322L213 906h122l58-65z" horiz-adv-x="694" unicode="Č"/><glyph d="m430-9-17-45c28-6 49-16 62-30 13-15 20-32 20-51 0-31-12-54-35-70s-53-24-88-24q-51 0-105 21l26 75c18-7 36-10 54-10 12 0 22 2 30 7 7 4 11 9 11 15 0 8-5 14-14 19-9 4-22 6-38 6h-27l29 89c-60 8-113 29-160 62S94 131 67 183c-27 51-40 108-40 169 0 67 16 128 49 183q49.5 82.5 135 129c57 31 120 47 189 47 51 0 101-10 150-31s91-50 126-86l-92-113c-24 29-52 51-84 68-33 16-65 24-98 24-39 0-75-10-108-29s-58-46-77-79-28-70-28-111 9-78 28-111c19-34 44-61 77-80q49.5-30 108-30c31 0 63 8 96 23 32 15 61 35 86 60l93-101c-33-34-71-62-114-83-43-22-88-36-133-41" horiz-adv-x="694" unicode="Ç"/><glyph d="M532 863 396 753l-112 10 112 153M430-9l-17-45c28-6 49-16 62-30 13-15 20-32 20-51 0-31-12-54-35-70s-53-24-88-24q-51 0-105 21l26 75c18-7 36-10 54-10 12 0 22 2 30 7 7 4 11 9 11 15 0 8-5 14-14 19-9 4-22 6-38 6h-27l29 89c-60 8-113 29-160 62S94 131 67 183c-27 51-40 108-40 169 0 67 16 128 49 183q49.5 82.5 135 129c57 31 120 47 189 47 51 0 101-10 150-31s91-50 126-86l-92-113c-24 29-52 51-84 68-33 16-65 24-98 24-39 0-75-10-108-29s-58-46-77-79-28-70-28-111 9-78 28-111c19-34 44-61 77-80q49.5-30 108-30c31 0 63 8 96 23 32 15 61 35 86 60l93-101c-33-34-71-62-114-83-43-22-88-36-133-41" horiz-adv-x="694" unicode="Ḉ"/><glyph d="M402 573c-39 0-75-10-108-29s-58-46-77-79-28-70-28-111 9-78 28-111c19-34 44-61 77-80q49.5-30 108-30c31 0 63 8 96 23 32 15 61 35 86 60l93-101c-37-39-81-69-131-92-51-23-101-34-152-34-69 0-131 16-187 48-56 31-100 75-132 130S27 284 27 352c0 67 16 128 49 183q49.5 82.5 135 129c57 31 120 47 189 47 51 0 101-10 150-31s91-50 126-86l-92-113c-24 29-52 51-84 68-33 16-65 24-98 24m189 186H469l-57 65-58-65H233l108 148h141z" horiz-adv-x="694" unicode="Ĉ"/><glyph d="M402 573c-39 0-75-10-108-29s-58-46-77-79-28-70-28-111 9-78 28-111c19-34 44-61 77-80q49.5-30 108-30c31 0 63 8 96 23 32 15 61 35 86 60l93-101c-37-39-81-69-131-92-51-23-101-34-152-34-69 0-131 16-187 48-56 31-100 75-132 130S27 284 27 352c0 67 16 128 49 183q49.5 82.5 135 129c57 31 120 47 189 47 51 0 101-10 150-31s91-50 126-86l-92-113c-24 29-52 51-84 68-33 16-65 24-98 24m94 269c0-25-8-45-23-61-16-17-36-25-61-25-24 0-44 8-59 25-16 16-24 36-24 61q0 37.5 24 63c15 16 35 24 59 24 25 0 45-8 61-24 15-17 23-38 23-63" horiz-adv-x="694" unicode="Ċ"/><glyph d="M742 350c0-68-16-128-47-181-32-53-76-95-133-124C505 15 441 0 368 0H77v700h297c71 0 135-15 191-44 56-30 100-71 131-124s46-114 46-182m-161-1c0 42-9 80-27 113q-28.5 49.5-75 78-48 27-108 27H235V133h143c39 0 74 9 105 28 31 18 55 43 72 76s26 70 26 112" horiz-adv-x="769" unicode="D"/><glyph d="M742 350c0-68-16-128-47-181-32-53-76-95-133-124C505 15 441 0 368 0H77v700h297c71 0 135-15 191-44 56-30 100-71 131-124s46-114 46-182m-161-1c0 42-9 80-27 113q-28.5 49.5-75 78-48 27-108 27H235V133h143c39 0 74 9 105 28 31 18 55 43 72 76s26 70 26 112m232 351h591V594l-391-462h397l-1-132H800v107l392 461H813m333 338h121l-108-148h-141L909 906h122l58-65z" horiz-adv-x="1441" unicode="Ǆ"/><glyph d="M742 350c0-68-16-128-47-181-32-53-76-95-133-124C505 15 441 0 368 0H77v311H9v79h68v310h296c72 0 136-15 192-44 56-30 100-71 131-124s46-114 46-182m-161-1c0 42-9 80-27 113-19 33-44 59-76 78q-48 27-108 27H235V390h175v-79H235V133h142c39 0 74 9 105 28 31 18 55 43 73 76 17 33 26 70 26 112" horiz-adv-x="769" unicode="Ð"/><glyph d="M742 350c0-68-16-128-47-181-32-53-76-95-133-124C505 15 441 0 368 0H77v700h297c71 0 135-15 191-44 56-30 100-71 131-124s46-114 46-182m-161-1c0 42-9 80-27 113q-28.5 49.5-75 78-48 27-108 27H235V133h143c39 0 74 9 105 28 31 18 55 43 72 76s26 70 26 112M399 906h121L412 758H271L162 906h122l58-65z" horiz-adv-x="769" unicode="Ď"/><glyph d="M742 350c0-68-16-128-47-181-32-53-76-95-133-124C505 15 441 0 368 0H77v311H9v79h68v310h296c72 0 136-15 192-44 56-30 100-71 131-124s46-114 46-182m-161-1c0 42-9 80-27 113-19 33-44 59-76 78q-48 27-108 27H235V390h175v-79H235V133h142c39 0 74 9 105 28 31 18 55 43 73 76 17 33 26 70 26 112" horiz-adv-x="769" unicode="Đ"/><glyph d="M742 350c0-68-16-128-47-181-32-53-76-95-133-124C505 15 441 0 368 0H77v700h297c71 0 135-15 191-44 56-30 100-71 131-124s46-114 46-182m-161-1c0 42-9 80-27 113q-28.5 49.5-75 78-48 27-108 27H235V133h143c39 0 74 9 105 28 31 18 55 43 72 76s26 70 26 112M454-156c0-25-8-46-23-62-16-16-36-24-61-24-24 0-44 8-59 25-16 16-24 36-24 61s8 46 24 62c15 16 35 24 59 24 25 0 45-8 61-24 15-16 23-37 23-62" horiz-adv-x="769" unicode="Ḍ"/><glyph d="M742 350c0-68-16-128-47-181-32-53-76-95-133-124C505 15 441 0 368 0H77v700h297c71 0 135-15 191-44 56-30 100-71 131-124s46-114 46-182m-161-1c0 42-9 80-27 113q-28.5 49.5-75 78-48 27-108 27H235V133h143c39 0 74 9 105 28 31 18 55 43 72 76s26 70 26 112M219-78h303v-94H219z" horiz-adv-x="769" unicode="Ḏ"/><glyph d="M742 350c0-68-16-128-47-181-32-53-76-95-133-124C505 15 441 0 368 0H77v700h297c71 0 135-15 191-44 56-30 100-71 131-124s46-114 46-182m-161-1c0 42-9 80-27 113q-28.5 49.5-75 78-48 27-108 27H235V133h143c39 0 74 9 105 28 31 18 55 43 72 76s26 70 26 112m236 188h459v-97L999 121h286V-1L807 0v97l277 319-267 1m287 342h121l-108-148H976L867 759h122l58-65z" horiz-adv-x="1317" unicode="ǅ"/><glyph d="M77 700h533V569H235V417h337V286H235V131h386V0H77z" horiz-adv-x="668" unicode="E"/><glyph d="M77 700h533V569H235V417h337V286H235V131h386V0H77m308 916 136-53-136-110-112 10z" horiz-adv-x="668" unicode="É"/><glyph d="M77 700h533V569H235V417h337V286H235V131h386V0H77m273 850c16 0 29 6 40 17s17 25 18 43h98c-2-47-17-84-46-112s-65-42-110-42q-67.5 0-111 42c-29 28-44 65-45 112h98c1-18 7-32 18-43s24-17 40-17" horiz-adv-x="668" unicode="Ĕ"/><glyph d="M77 700h533V569H235V417h337V286H235V131h386V0H77m311 906h121L401 758H260L151 906h122l58-65z" horiz-adv-x="668" unicode="Ě"/><glyph d="M176 910h98c1-18 7-32 18-43s24-17 40-17 29 6 40 17 17 25 18 43h98c-2-47-17-84-46-112s-65-42-110-42q-67.5 0-111 42c-29 28-44 65-45 112M404 0l-20-54c28-6 49-16 62-30 13-15 20-32 20-51 0-31-12-54-35-70s-53-24-88-24q-51 0-105 21l26 75c18-7 36-10 54-10 12 0 22 2 30 7 7 4 11 9 11 15 0 8-5 14-14 19-9 4-22 6-38 6h-27l31 96H77v700h533V569H235V417h337V286H235V131h386V0z" horiz-adv-x="668" unicode="Ḝ"/><glyph d="M77 700h533V569H235V417h337V286H235V131h386V0H77m452 759H407l-57 65-58-65H171l108 148h141z" horiz-adv-x="668" unicode="Ê"/><glyph d="M77 700h533V569H235V417h337V286H235V131h386V0H77m471 752H414l-64 57-65-57H151l111 115h174m-41 182 112-70-150-82-98 27z" horiz-adv-x="668" unicode="Ế"/><glyph d="M77 700h533V569H235V417h337V286H235V131h386V0H77m355-156c0-25-8-46-23-62-16-16-36-24-61-24-24 0-44 8-59 25-16 16-24 36-24 61s8 46 24 62c15 16 35 24 59 24 25 0 45-8 61-24 15-16 23-37 23-62m96 915H406l-57 65-58-65H170l108 148h141z" horiz-adv-x="668" unicode="Ệ"/><glyph d="M77 700h533V569H235V417h337V286H235V131h386V0H77m471 752H414l-64 57-65-57H151l111 115h174m-144 182 135-125-97-27-151 82z" horiz-adv-x="668" unicode="Ề"/><glyph d="M77 700h533V569H235V417h337V286H235V131h386V0H77m487 752H430l-64 57-65-57H167l111 115h174m0 130c0-35-24-68-71-101l-66 26q36 25.5 36 48c0 6-2 11-6 14s-9 4-16 4c-11 0-21-3-30-10l-40 58c33 21 67 31 101 31 29 0 51-7 68-20 16-13 24-30 24-50" horiz-adv-x="668" unicode="Ể"/><glyph d="M77 700h533V569H235V417h337V286H235V131h386V0H77m467 752H410l-64 57-65-57H147l111 115h174m-7 34c-16 0-31 2-45 7s-30 11-49 20c-2 1-9 4-20 9-12 5-22 7-29 7-11 0-19-3-24-10s-7-17-7-30h-76c0 41 7 72 21 95q21 33 69 33c16 0 32-2 47-7s31-11 49-20c23-11 39-16 48-16 11 0 18 3 23 10s7 17 7 30h77c0-41-7-73-21-95-15-22-38-33-70-33" horiz-adv-x="668" unicode="Ễ"/><glyph d="M77 700h533V569H235V417h337V286H235V131h386V0H77m169 919 79-157-109-10-91 120m305 47 80-157-109-10-91 120z" horiz-adv-x="668" unicode="Ȅ"/><glyph d="M77 700h533V569H235V417h337V286H235V131h386V0H77m250 828c0-21-6-38-19-51q-19.5-21-51-21c-21 0-37 7-50 21-13 13-20 30-20 51s7 39 20 52 29 20 50 20 38-7 51-20 19-31 19-52m187 0c0-21-7-38-20-51-13-14-30-21-50-21q-31.5 0-51 21c-13 13-20 30-20 51s7 38 20 52c13 13 30 20 51 20 20 0 37-7 50-20 13-14 20-31 20-52" horiz-adv-x="668" unicode="Ë"/><glyph d="M77 700h533V569H235V417h337V286H235V131h386V0H77m357 842c0-25-8-45-23-61-16-17-36-25-61-25-24 0-44 8-59 25-16 16-24 36-24 61q0 37.5 24 63c15 16 35 24 59 24 25 0 45-8 61-24 15-17 23-38 23-63" horiz-adv-x="668" unicode="Ė"/><glyph d="M77 700h533V569H235V417h337V286H235V131h386V0H77m355-156c0-25-8-46-23-62-16-16-36-24-61-24-24 0-44 8-59 25-16 16-24 36-24 61s8 46 24 62c15 16 35 24 59 24 25 0 45-8 61-24 15-16 23-37 23-62" horiz-adv-x="668" unicode="Ẹ"/><glyph d="M77 700h533V569H235V417h337V286H235V131h386V0H77m238 916 104-153-112-10-128 110z" horiz-adv-x="668" unicode="È"/><glyph d="M77 700h533V569H235V417h337V286H235V131h386V0H77m385 877c0-22-7-45-22-68-15-24-36-46-61-67l-72 31c13 13 24 26 32 40 7 14 11 27 11 38 0 8-3 14-8 19s-12 7-20 7c-12 0-24-4-37-13l-42 68c35 23 72 35 111 35 33 0 59-8 79-24 19-16 29-38 29-66" horiz-adv-x="668" unicode="Ẻ"/><glyph d="M77 700h533V569H235V417h337V286H235V131h386V0H77m117 759c1 47 16 84 45 112q43.5 42 111 42c45 0 81-14 110-42s44-65 46-112h-98c-1 17-7 32-18 43s-24 17-40 17-29-6-40-17-17-26-18-43z" horiz-adv-x="668" unicode="Ȇ"/><glyph d="M77 700h533V569H235V417h337V286H235V131h386V0H77m107 856h332v-94H184z" horiz-adv-x="668" unicode="Ē"/><glyph d="M620 700h533V569H778V417h337V286H778V131h386V0H620M201 851h278v-90H201m185 284 112-70-150-82-98 27z" horiz-adv-x="668" unicode="Ḗ"/><glyph d="M643 700h533V569H801V417h337V286H801V131h386V0H643M225 851h278v-90H225m82 284 135-125-97-27-151 82z" horiz-adv-x="668" unicode="Ḕ"/><glyph d="M623-207q-48-21-93-21c-34 0-61 9-80 27-20 18-30 43-30 74 0 45 21 88 62 127H77v700h533V569H235V417h337V286H235V131h386V0c-28-20-48-38-61-53-13-16-20-32-20-47q0-27 24-27c11 0 21 3 30 8z" horiz-adv-x="668" unicode="Ę"/><glyph d="M77 700h533V569H235V417h337V286H235V131h386V0H77m356 755c-15 0-29 3-42 8s-29 12-47 21q-12 7.5-24 12c-8 3-15 5-20 5-10 0-17-3-21-10s-6-18-7-33h-91c0 48 7 85 22 111 14 26 37 39 70 39 15 0 29-2 42-7s29-13 47-22c21-12 35-18 44-18 10 0 17 4 21 11s6 18 7 32h91c0-47-7-84-21-110-15-26-38-39-71-39" horiz-adv-x="668" unicode="Ẽ"/><glyph d="M77 700h503l-1-131H235V397h316V265H235V0H77z" horiz-adv-x="595" unicode="F"/><glyph d="M547 353h137V81c-37-27-82-49-134-66S448-11 400-11c-70 0-133 16-190 48-57 31-101 75-134 130S27 283 27 351c0 67 17 129 50 184q49.5 82.5 138 129c58 31 123 47 194 47 52 0 103-9 153-28 49-19 92-44 128-76l-89-113c-26 25-56 44-90 58q-51 21-102 21c-41 0-78-10-111-29-34-20-61-47-80-80-19-34-29-72-29-113s10-79 30-113c19-35 46-62 80-81q49.5-30 111-30c21 0 43 4 67 11s47 16 70 28z" horiz-adv-x="745" unicode="G"/><glyph d="M547 353h137V81c-37-27-82-49-134-66S448-11 400-11c-70 0-133 16-190 48-57 31-101 75-134 130S27 283 27 351c0 67 17 129 50 184q49.5 82.5 138 129c58 31 123 47 194 47 52 0 103-9 153-28 49-19 92-44 128-76l-89-113c-26 25-56 44-90 58q-51 21-102 21c-41 0-78-10-111-29-34-20-61-47-80-80-19-34-29-72-29-113s10-79 30-113c19-35 46-62 80-81q49.5-30 111-30c21 0 43 4 67 11s47 16 70 28M395 850c16 0 29 6 40 17s17 25 18 43h98c-2-47-17-84-46-112s-65-42-110-42q-67.5 0-111 42c-29 28-44 65-45 112h98c1-18 7-32 18-43s24-17 40-17" horiz-adv-x="745" unicode="Ğ"/><glyph d="M547 353h137V81c-37-27-82-49-134-66S448-11 400-11c-70 0-133 16-190 48-57 31-101 75-134 130S27 283 27 351c0 67 17 129 50 184q49.5 82.5 138 129c58 31 123 47 194 47 52 0 103-9 153-28 49-19 92-44 128-76l-89-113c-26 25-56 44-90 58q-51 21-102 21c-41 0-78-10-111-29-34-20-61-47-80-80-19-34-29-72-29-113s10-79 30-113c19-35 46-62 80-81q49.5-30 111-30c21 0 43 4 67 11s47 16 70 28M433 906h121L446 758H305L196 906h122l58-65z" horiz-adv-x="745" unicode="Ǧ"/><glyph d="M547 353h137V81c-37-27-82-49-134-66S448-11 400-11c-70 0-133 16-190 48-57 31-101 75-134 130S27 283 27 351c0 67 17 129 50 184q49.5 82.5 138 129c58 31 123 47 194 47 52 0 103-9 153-28 49-19 92-44 128-76l-89-113c-26 25-56 44-90 58q-51 21-102 21c-41 0-78-10-111-29-34-20-61-47-80-80-19-34-29-72-29-113s10-79 30-113c19-35 46-62 80-81q49.5-30 111-30c21 0 43 4 67 11s47 16 70 28m27 593H452l-57 65-58-65H216l108 148h141z" horiz-adv-x="745" unicode="Ĝ"/><glyph d="M547 353h137V81c-37-27-82-49-134-66S448-11 400-11c-70 0-133 16-190 48-57 31-101 75-134 130S27 283 27 351c0 67 17 129 50 184q49.5 82.5 138 129c58 31 123 47 194 47 52 0 103-9 153-28 49-19 92-44 128-76l-89-113c-26 25-56 44-90 58q-51 21-102 21c-41 0-78-10-111-29-34-20-61-47-80-80-19-34-29-72-29-113s10-79 30-113c19-35 46-62 80-81q49.5-30 111-30c21 0 43 4 67 11s47 16 70 28M325-59h130l-68-170h-95z" horiz-adv-x="745" unicode="Ģ"/><glyph d="M547 353h137V81c-37-27-82-49-134-66S448-11 400-11c-70 0-133 16-190 48-57 31-101 75-134 130S27 283 27 351c0 67 17 129 50 184q49.5 82.5 138 129c58 31 123 47 194 47 52 0 103-9 153-28 49-19 92-44 128-76l-89-113c-26 25-56 44-90 58q-51 21-102 21c-41 0-78-10-111-29-34-20-61-47-80-80-19-34-29-72-29-113s10-79 30-113c19-35 46-62 80-81q49.5-30 111-30c21 0 43 4 67 11s47 16 70 28m-68 676c0-25-8-45-23-61-16-17-36-25-61-25-24 0-44 8-59 25-16 16-24 36-24 61q0 37.5 24 63c15 16 35 24 59 24 25 0 45-8 61-24 15-17 23-38 23-63" horiz-adv-x="745" unicode="Ġ"/><glyph d="M547 353h137V81c-37-27-82-49-134-66S448-11 400-11c-70 0-133 16-190 48-57 31-101 75-134 130S27 283 27 351c0 67 17 129 50 184q49.5 82.5 138 129c58 31 123 47 194 47 52 0 103-9 153-28 49-19 92-44 128-76l-89-113c-26 25-56 44-90 58q-51 21-102 21c-41 0-78-10-111-29-34-20-61-47-80-80-19-34-29-72-29-113s10-79 30-113c19-35 46-62 80-81q49.5-30 111-30c21 0 43 4 67 11s47 16 70 28M229 856h332v-94H229z" horiz-adv-x="745" unicode="Ḡ"/><glyph d="M77 700h158V408h317v292h158V0H552v276H235V0H77z" horiz-adv-x="787" unicode="H"/><glyph d="M819 599v-80h-91V0H569v277H253V0H94v519H3v80h91v101h159V599h316v101h159V599M569 408v111H253V408z" horiz-adv-x="823" unicode="Ħ"/><glyph d="M77 700h158V408h317v292h158V0H552v276H235V0H77m317-116c16 0 29 6 40 17s17 25 18 43h98c-2-47-17-84-46-112s-65-42-110-42q-67.5 0-111 42c-29 28-44 65-45 112h98c1-18 7-32 18-43s24-17 40-17" horiz-adv-x="787" unicode="Ḫ"/><glyph d="M77 700h158V408h317v292h158V0H552v276H235V0H77m503 759H458l-57 65-58-65H222l108 148h141z" horiz-adv-x="787" unicode="Ĥ"/><glyph d="M77 700h158V408h317v292h158V0H552v276H235V0H77m400-156c0-25-8-46-23-62-16-16-36-24-61-24-24 0-44 8-59 25-16 16-24 36-24 61s8 46 24 62c15 16 35 24 59 24 25 0 45-8 61-24 15-16 23-37 23-62" horiz-adv-x="787" unicode="Ḥ"/><glyph d="M77 700h158V0H77z" horiz-adv-x="313" unicode="I"/><glyph d="M77 700h158V0H77m461-7c-91 0-167 36-229 109l73 112c24-25 49-45 76-58 26-13 50-20 72-20 27 0 47 8 62 24s22 39 22 68v338H373v134h400V224c0-73-21-129-62-170C669 13 611-7 538-7" horiz-adv-x="849" unicode="Ĳ"/><glyph d="M77 700h158V0H77m114 916 136-53-136-110-112 10z" horiz-adv-x="313" unicode="Í"/><glyph d="M77 700h158V0H77m79 850c16 0 29 6 40 17s17 25 18 43h98c-2-47-17-84-46-112s-65-42-110-42q-67.5 0-111 42C16 826 1 863 0 910h98c1-18 7-32 18-43s24-17 40-17" horiz-adv-x="313" unicode="Ĭ"/><glyph d="M77 700h158V0H77m258 759H213l-57 65-58-65H-23L85 907h141z" horiz-adv-x="313" unicode="Î"/><glyph d="M77 700h158V0H77M52 919l79-157-109-10-91 120m305 47 80-157-109-10-91 120z" horiz-adv-x="313" unicode="Ȉ"/><glyph d="M77 700h158V0H77m56 828c0-21-6-38-19-51q-19.5-21-51-21c-21 0-37 7-50 21-13 13-20 30-20 51s7 39 20 52 29 20 50 20 38-7 51-20 19-31 19-52m187 0c0-21-7-38-20-51-13-14-30-21-50-21q-31.5 0-51 21c-13 13-20 30-20 51s7 38 20 52c13 13 30 20 51 20 20 0 37-7 50-20 13-14 20-31 20-52" horiz-adv-x="313" unicode="Ï"/><glyph d="M438 700h158V0H438M132 827c0-20-6-37-19-50-13-14-30-21-50-21s-36 7-49 21C1 790-6 807-6 827c0 21 7 38 20 51s29 20 49 20 37-7 50-20 19-30 19-51m185 0c0-20-6-37-19-50-13-14-30-21-49-21-20 0-37 7-50 21-13 13-20 30-20 50 0 21 7 38 20 51s29 20 50 20c19 0 36-7 49-20s19-30 19-51m-116 241 112-70-150-82-98 27z" horiz-adv-x="313" unicode="Ḯ"/><glyph d="M77 700h158V0H77m163 842c0-25-8-45-23-61-16-17-36-25-61-25-24 0-44 8-59 25-16 16-24 36-24 61q0 37.5 24 63c15 16 35 24 59 24 25 0 45-8 61-24 15-17 23-38 23-63" horiz-adv-x="313" unicode="İ"/><glyph d="M77 700h158V0H77m162-156c0-25-8-46-23-62-16-16-36-24-61-24-24 0-44 8-59 25-16 16-24 36-24 61s8 46 24 62c15 16 35 24 59 24 25 0 45-8 61-24 15-16 23-37 23-62" horiz-adv-x="313" unicode="Ị"/><glyph d="M77 700h158V0H77m44 916 104-153-112-10-128 110z" horiz-adv-x="313" unicode="Ì"/><glyph d="M77 700h158V0H77m191 877c0-22-7-45-22-68-15-24-36-46-61-67l-72 31c13 13 24 26 32 40 7 14 11 27 11 38 0 8-3 14-8 19s-12 7-20 7c-12 0-24-4-37-13l-42 68c35 23 72 35 111 35 33 0 59-8 79-24 19-16 29-38 29-66" horiz-adv-x="313" unicode="Ỉ"/><glyph d="M77 700h158V0H77M0 759c1 47 16 84 45 112q43.5 42 111 42c45 0 81-14 110-42s44-65 46-112h-98c-1 17-7 32-18 43s-24 17-40 17-29-6-40-17-17-26-18-43z" horiz-adv-x="313" unicode="Ȋ"/><glyph d="M77 700h158V0H77M4 856h303v-94H4z" horiz-adv-x="313" unicode="Ī"/><glyph d="M130-100q0-27 24-27c11 0 21 3 30 8l29-88q-48-21-93-21c-34 0-61 9-80 27-20 18-30 43-30 74C10-80 32-36 77 5v695h158V0h-24c-28-20-48-38-61-53-13-16-20-32-20-47" horiz-adv-x="313" unicode="Į"/><glyph d="M77 700h158V0H77m162 755c-15 0-29 3-42 8s-29 12-47 21q-12 7.5-24 12c-8 3-15 5-20 5-10 0-17-3-21-10s-6-18-7-33h-91c0 48 7 85 22 111 14 26 37 39 70 39 15 0 29-2 42-7s29-13 47-22c21-12 35-18 44-18 10 0 17 4 21 11s6 18 7 32h91c0-47-7-84-21-110-15-26-38-39-71-39" horiz-adv-x="313" unicode="Ĩ"/><glyph d="M225-7C134-7 58 29-4 102l73 112c24-25 49-45 76-58 26-13 50-20 72-20 27 0 47 8 62 24s22 39 22 68v338H60v134h400V224c0-73-21-129-62-170C356 13 298-7 225-7" horiz-adv-x="524" unicode="J"/><glyph d="M225-7C134-7 58 29-4 102l73 112c24-25 49-45 76-58 26-13 50-20 72-20 27 0 47 8 62 24s22 39 22 68v338H60v134h400V224c0-73-21-129-62-170C356 13 298-7 225-7m211 766H314l-57 65-58-65H78l108 148h141z" horiz-adv-x="524" unicode="Ĵ"/><glyph d="M726 0H537L335 287 235 176V0H77v700h158V374l290 326h184L445 409z" horiz-adv-x="737" unicode="K"/><glyph d="M726 0H537L335 287 235 176V0H77v700h158V374l290 326h184L445 409M295-59h130l-68-170h-95z" horiz-adv-x="737" unicode="Ķ"/><glyph d="M77 700h158V138h300V0H77z" horiz-adv-x="552" unicode="L"/><glyph d="M77 700h158V138h300V0H77m700-7c-91 0-167 36-229 109l73 112c24-25 49-45 76-58 26-13 50-20 72-20 27 0 47 8 62 24s22 39 22 68v338H612v134h400V224c0-73-21-129-62-170C908 13 850-7 777-7" horiz-adv-x="1075" unicode="Ǉ"/><glyph d="M77 700h158V138h300V0H77m113 916 136-53-136-110-112 10z" horiz-adv-x="552" unicode="Ĺ"/><glyph d="M77 700h158V138h300V0H77m332 700h125l-30-212h-95z" horiz-adv-x="552" unicode="Ľ"/><glyph d="M77 700h158V138h300V0H77m164-59h130l-68-170h-95z" horiz-adv-x="552" unicode="Ļ"/><glyph d="M390 773h158V211h300V73H390m121 343c0-25-8-46-23-62-16-16-36-24-61-24-24 0-44 8-59 25-16 16-24 36-24 61s8 46 24 62c15 16 35 24 59 24 25 0 45-8 61-24 15-16 23-37 23-62" horiz-adv-x="552" unicode="Ŀ"/><glyph d="M77 700h158V138h300V0H77m312-156c0-25-8-46-23-62-16-16-36-24-61-24-24 0-44 8-59 25-16 16-24 36-24 61s8 46 24 62c15 16 35 24 59 24 25 0 45-8 61-24 15-16 23-37 23-62" horiz-adv-x="552" unicode="Ḷ"/><glyph d="M77 700h158V138h300V0H77m488-75c21-1 36 6 47 19s16 33 16 58v536h153V-22c0-55-16-99-48-130q-48-48-132-48-61.5 0-111 21l32 112c15-5 30-7 43-8m221 766c0-25-8-46-23-62-16-16-36-24-61-24-24 0-44 8-59 25-16 16-24 36-24 61s8 46 24 62c15 16 35 24 59 24 25 0 45-8 61-24 15-16 23-37 23-62" horiz-adv-x="850" unicode="ǈ"/><glyph d="M77 700h158V138h300V0H77m77-78h303v-94H154z" horiz-adv-x="552" unicode="Ḻ"/><glyph d="M275 138h300V0H117v310l-97-51v88l97 51v302h158V481l113 59v-88l-113-59z" horiz-adv-x="592" unicode="Ł"/><glyph d="M77 700h176l218-430 216 430h175V0H720v473L521 71H419L219 473V0H77z" horiz-adv-x="940" unicode="M"/><glyph d="M77 700h176l218-430 216 430h175V0H720v473L521 71H419L219 473V0H77m476-156c0-25-8-46-23-62-16-16-36-24-61-24-24 0-44 8-59 25-16 16-24 36-24 61s8 46 24 62c15 16 35 24 59 24 25 0 45-8 61-24 15-16 23-37 23-62" horiz-adv-x="940" unicode="Ṃ"/><glyph d="M561 700h150V0H567L228 450V0H77v700h144l340-452z" horiz-adv-x="788" unicode="N"/><glyph d="M561 700h150V0H567L228 450V0H77v700h144l340-452M1013-7c-91 0-167 36-229 109l73 112c24-25 49-45 76-58 26-13 50-20 72-20 27 0 47 8 62 24s22 39 22 68v338H848v134h400V224c0-73-21-129-62-170-42-41-100-61-173-61" horiz-adv-x="1312" unicode="Ǌ"/><glyph d="M561 700h150V0H567L228 450V0H77v700h144l340-452M436 916l136-53-136-110-112 10z" horiz-adv-x="788" unicode="Ń"/><glyph d="M561 700h150V0H567L228 450V0H77v700h144l340-452M439 906h121L452 758H311L202 906h122l58-65z" horiz-adv-x="788" unicode="Ň"/><glyph d="M561 700h150V0H567L228 450V0H77v700h144l340-452M332-59h130l-68-170h-95z" horiz-adv-x="788" unicode="Ņ"/><glyph d="M561 700h150V0H567L228 450V0H77v700h144l340-452m-76 594c0-25-8-45-23-61-16-17-36-25-61-25-24 0-44 8-59 25-16 16-24 36-24 61q0 37.5 24 63c15 16 35 24 59 24 25 0 45-8 61-24 15-17 23-38 23-63" horiz-adv-x="788" unicode="Ṅ"/><glyph d="M561 700h150V0H567L228 450V0H77v700h144l340-452m-81-404c0-25-8-46-23-62-16-16-36-24-61-24-24 0-44 8-59 25-16 16-24 36-24 61s8 46 24 62c15 16 35 24 59 24 25 0 45-8 61-24 15-16 23-37 23-62" horiz-adv-x="788" unicode="Ṇ"/><glyph d="M711 0h-1c-1-65-23-117-65-155-43-38-99-57-169-57-73 0-135 21-186 64l62 122c21-14 42-25 63-32s41-11 60-11c24 0 44 7 59 20s23 33 26 58L228 449V0H77v700h144l340-450v450h150z" horiz-adv-x="788" unicode="Ŋ"/><glyph d="M561 700h150V0H567L228 450V0H77v700h144l340-452M801-75c21-1 36 6 47 19s16 33 16 58v536h153V-22c0-55-16-99-48-130q-48-48-132-48-61.5 0-111 21l32 112c15-5 30-7 43-8m221 766c0-25-8-46-23-62-16-16-36-24-61-24-24 0-44 8-59 25-16 16-24 36-24 61s8 46 24 62c15 16 35 24 59 24 25 0 45-8 61-24 15-16 23-37 23-62" horiz-adv-x="1086" unicode="ǋ"/><glyph d="M561 700h150V0H567L228 450V0H77v700h144l340-452M245-78h303v-94H245z" horiz-adv-x="788" unicode="Ṉ"/><glyph d="M561 700h150V0H567L228 450V0H77v700h144l340-452m-77 507c-15 0-29 3-42 8s-29 12-47 21q-12 7.5-24 12c-8 3-15 5-20 5-10 0-17-3-21-10s-6-18-7-33h-91c0 48 7 85 22 111 14 26 37 39 70 39 15 0 29-2 42-7s29-13 47-22c21-12 35-18 44-18 10 0 17 4 21 11s6 18 7 32h91c0-47-7-84-21-110-15-26-38-39-71-39" horiz-adv-x="788" unicode="Ñ"/><glyph d="M779 351c0-67-16-129-49-184S651 68 594 37C537 5 473-11 403-11S269 5 212 37c-57 31-102 75-135 130S27 283 27 351c0 67 17 129 50 184q49.5 82.5 135 129c57 31 120 47 191 47 70 0 134-16 191-47s103-74 136-129 49-117 49-184m-590 0c0-41 10-79 30-113 19-34 46-61 79-81s68-30 107-30 74 10 107 30c32 19 58 46 77 81 19 34 28 72 28 113s-9 78-28 112-45 61-77 81c-33 19-68 29-107 29s-75-10-108-29c-33-20-60-47-79-81s-29-71-29-112" horiz-adv-x="806" unicode="O"/><glyph d="M779 351c0-67-16-129-49-184S651 68 594 37C537 5 473-11 403-11S269 5 212 37c-57 31-102 75-135 130S27 283 27 351c0 67 17 129 50 184q49.5 82.5 135 129c57 31 120 47 191 47 70 0 134-16 191-47s103-74 136-129 49-117 49-184m-590 0c0-41 10-79 30-113 19-34 46-61 79-81s68-30 107-30 74 10 107 30c32 19 58 46 77 81 19 34 28 72 28 113s-9 78-28 112-45 61-77 81c-33 19-68 29-107 29s-75-10-108-29c-33-20-60-47-79-81s-29-71-29-112m249 565 136-53-136-110-112 10z" horiz-adv-x="806" unicode="Ó"/><glyph d="M779 351c0-67-16-129-49-184S651 68 594 37C537 5 473-11 403-11S269 5 212 37c-57 31-102 75-135 130S27 283 27 351c0 67 17 129 50 184q49.5 82.5 135 129c57 31 120 47 191 47 70 0 134-16 191-47s103-74 136-129 49-117 49-184m-590 0c0-41 10-79 30-113 19-34 46-61 79-81s68-30 107-30 74 10 107 30c32 19 58 46 77 81 19 34 28 72 28 113s-9 78-28 112-45 61-77 81c-33 19-68 29-107 29s-75-10-108-29c-33-20-60-47-79-81s-29-71-29-112m214 499c16 0 29 6 40 17s17 25 18 43h98c-2-47-17-84-46-112s-65-42-110-42q-67.5 0-111 42c-29 28-44 65-45 112h98c1-18 7-32 18-43s24-17 40-17" horiz-adv-x="806" unicode="Ŏ"/><glyph d="M779 351c0-67-16-129-49-184S651 68 594 37C537 5 473-11 403-11S269 5 212 37c-57 31-102 75-135 130S27 283 27 351c0 67 17 129 50 184q49.5 82.5 135 129c57 31 120 47 191 47 70 0 134-16 191-47s103-74 136-129 49-117 49-184m-590 0c0-41 10-79 30-113 19-34 46-61 79-81s68-30 107-30 74 10 107 30c32 19 58 46 77 81 19 34 28 72 28 113s-9 78-28 112-45 61-77 81c-33 19-68 29-107 29s-75-10-108-29c-33-20-60-47-79-81s-29-71-29-112m393 408H460l-57 65-58-65H224l108 148h141z" horiz-adv-x="806" unicode="Ô"/><glyph d="M779 351c0-67-16-129-49-184S651 68 594 37C537 5 473-11 403-11S269 5 212 37c-57 31-102 75-135 130S27 283 27 351c0 67 17 129 50 184q49.5 82.5 135 129c57 31 120 47 191 47 70 0 134-16 191-47s103-74 136-129 49-117 49-184m-590 0c0-41 10-79 30-113 19-34 46-61 79-81s68-30 107-30 74 10 107 30c32 19 58 46 77 81 19 34 28 72 28 113s-9 78-28 112-45 61-77 81c-33 19-68 29-107 29s-75-10-108-29c-33-20-60-47-79-81s-29-71-29-112m412 401H467l-64 57-65-57H204l111 115h174m-41 182 112-70-150-82-98 27z" horiz-adv-x="806" unicode="Ố"/><glyph d="M779 351c0-67-16-129-49-184S651 68 594 37C537 5 473-11 403-11S269 5 212 37c-57 31-102 75-135 130S27 283 27 351c0 67 17 129 50 184q49.5 82.5 135 129c57 31 120 47 191 47 70 0 134-16 191-47s103-74 136-129 49-117 49-184m-590 0c0-41 10-79 30-113 19-34 46-61 79-81s68-30 107-30 74 10 107 30c32 19 58 46 77 81 19 34 28 72 28 113s-9 78-28 112-45 61-77 81c-33 19-68 29-107 29s-75-10-108-29c-33-20-60-47-79-81s-29-71-29-112m297-507c0-25-8-46-23-62-16-16-36-24-61-24-24 0-44 8-59 25-16 16-24 36-24 61s8 46 24 62c15 16 35 24 59 24 25 0 45-8 61-24 15-16 23-37 23-62m96 915H460l-57 65-58-65H224l108 148h141z" horiz-adv-x="806" unicode="Ộ"/><glyph d="M779 351c0-67-16-129-49-184S651 68 594 37C537 5 473-11 403-11S269 5 212 37c-57 31-102 75-135 130S27 283 27 351c0 67 17 129 50 184q49.5 82.5 135 129c57 31 120 47 191 47 70 0 134-16 191-47s103-74 136-129 49-117 49-184m-590 0c0-41 10-79 30-113 19-34 46-61 79-81s68-30 107-30 74 10 107 30c32 19 58 46 77 81 19 34 28 72 28 113s-9 78-28 112-45 61-77 81c-33 19-68 29-107 29s-75-10-108-29c-33-20-60-47-79-81s-29-71-29-112m412 401H467l-64 57-65-57H204l111 115h174m-144 182 135-125-97-27-151 82z" horiz-adv-x="806" unicode="Ồ"/><glyph d="M779 351c0-67-16-129-49-184S651 68 594 37C537 5 473-11 403-11S269 5 212 37c-57 31-102 75-135 130S27 283 27 351c0 67 17 129 50 184q49.5 82.5 135 129c57 31 120 47 191 47 70 0 134-16 191-47s103-74 136-129 49-117 49-184m-590 0c0-41 10-79 30-113 19-34 46-61 79-81s68-30 107-30 74 10 107 30c32 19 58 46 77 81 19 34 28 72 28 113s-9 78-28 112-45 61-77 81c-33 19-68 29-107 29s-75-10-108-29c-33-20-60-47-79-81s-29-71-29-112m428 401H483l-64 57-65-57H220l111 115h174m0 130c0-35-24-68-71-101l-66 26q36 25.5 36 48c0 6-2 11-6 14s-9 4-16 4c-11 0-21-3-30-10l-40 58c33 21 67 31 101 31 29 0 51-7 68-20 16-13 24-30 24-50" horiz-adv-x="806" unicode="Ổ"/><glyph d="M779 351c0-67-16-129-49-184S651 68 594 37C537 5 473-11 403-11S269 5 212 37c-57 31-102 75-135 130S27 283 27 351c0 67 17 129 50 184q49.5 82.5 135 129c57 31 120 47 191 47 70 0 134-16 191-47s103-74 136-129 49-117 49-184m-590 0c0-41 10-79 30-113 19-34 46-61 79-81s68-30 107-30 74 10 107 30c32 19 58 46 77 81 19 34 28 72 28 113s-9 78-28 112-45 61-77 81c-33 19-68 29-107 29s-75-10-108-29c-33-20-60-47-79-81s-29-71-29-112m408 401H463l-64 57-65-57H200l111 115h174m-7 34c-16 0-31 2-45 7s-30 11-49 20c-2 1-9 4-20 9-12 5-22 7-29 7-11 0-19-3-24-10s-7-17-7-30h-76c0 41 7 72 21 95q21 33 69 33c16 0 32-2 47-7s31-11 49-20c23-11 39-16 48-16 11 0 18 3 23 10s7 17 7 30h77c0-41-7-73-21-95-15-22-38-33-70-33" horiz-adv-x="806" unicode="Ỗ"/><glyph d="M779 351c0-67-16-129-49-184S651 68 594 37C537 5 473-11 403-11S269 5 212 37c-57 31-102 75-135 130S27 283 27 351c0 67 17 129 50 184q49.5 82.5 135 129c57 31 120 47 191 47 70 0 134-16 191-47s103-74 136-129 49-117 49-184m-590 0c0-41 10-79 30-113 19-34 46-61 79-81s68-30 107-30 74 10 107 30c32 19 58 46 77 81 19 34 28 72 28 113s-9 78-28 112-45 61-77 81c-33 19-68 29-107 29s-75-10-108-29c-33-20-60-47-79-81s-29-71-29-112m110 568 79-157-109-10-91 120m305 47 80-157-109-10-91 120z" horiz-adv-x="806" unicode="Ȍ"/><glyph d="M779 351c0-67-16-129-49-184S651 68 594 37C537 5 473-11 403-11S269 5 212 37c-57 31-102 75-135 130S27 283 27 351c0 67 17 129 50 184q49.5 82.5 135 129c57 31 120 47 191 47 70 0 134-16 191-47s103-74 136-129 49-117 49-184m-590 0c0-41 10-79 30-113 19-34 46-61 79-81s68-30 107-30 74 10 107 30c32 19 58 46 77 81 19 34 28 72 28 113s-9 78-28 112-45 61-77 81c-33 19-68 29-107 29s-75-10-108-29c-33-20-60-47-79-81s-29-71-29-112m191 477c0-21-6-38-19-51q-19.5-21-51-21c-21 0-37 7-50 21-13 13-20 30-20 51s7 39 20 52 29 20 50 20 38-7 51-20 19-31 19-52m187 0c0-21-7-38-20-51-13-14-30-21-50-21q-31.5 0-51 21c-13 13-20 30-20 51s7 38 20 52c13 13 30 20 51 20 20 0 37-7 50-20 13-14 20-31 20-52" horiz-adv-x="806" unicode="Ö"/><glyph d="M1387 351c0-67-16-129-49-184s-79-99-136-130c-57-32-121-48-191-48S877 5 820 37c-57 31-102 75-135 130s-50 116-50 184c0 67 17 129 50 184q49.5 82.5 135 129c57 31 120 47 191 47 70 0 134-16 191-47s103-74 136-129 49-117 49-184m-590 0c0-41 10-79 30-113 19-34 46-61 79-81s68-30 107-30 74 10 107 30c32 19 58 46 77 81 19 34 28 72 28 113s-9 78-28 112-45 61-77 81c-33 19-68 29-107 29s-75-10-108-29c-33-20-60-47-79-81s-29-71-29-112M379 827c0-20-6-37-19-50-13-14-30-21-50-21s-36 7-49 21c-13 13-20 30-20 50 0 21 7 38 20 51s29 20 49 20 37-7 50-20 19-30 19-51m185 0c0-20-6-37-19-50-13-14-30-21-49-21-20 0-37 7-50 21-13 13-20 30-20 50 0 21 7 38 20 51s29 20 50 20c19 0 36-7 49-20s19-30 19-51m-301 199h278v-90H263z" horiz-adv-x="806" unicode="Ȫ"/><glyph d="M1371 351c0-67-16-129-49-184s-79-99-136-130c-57-32-121-48-191-48S861 5 804 37c-57 31-102 75-135 130s-50 116-50 184c0 67 17 129 50 184q49.5 82.5 135 129c57 31 120 47 191 47 70 0 134-16 191-47s103-74 136-129 49-117 49-184m-590 0c0-41 10-79 30-113 19-34 46-61 79-81s68-30 107-30 74 10 107 30c32 19 58 46 77 81 19 34 28 72 28 113s-9 78-28 112-45 61-77 81c-33 19-68 29-107 29s-75-10-108-29c-33-20-60-47-79-81s-29-71-29-112M533 834q0-33-21-54c-15-15-33-22-54-22s-39 7-53 22q-21 21-21 54c0 22 7 40 21 55 14 14 32 21 53 21q31.5 0 54-21c14-14 21-32 21-55m-213 194h278v-90H320z" horiz-adv-x="806" unicode="Ȱ"/><glyph d="M779 351c0-67-16-129-49-184S651 68 594 37C537 5 473-11 403-11S269 5 212 37c-57 31-102 75-135 130S27 283 27 351c0 67 17 129 50 184q49.5 82.5 135 129c57 31 120 47 191 47 70 0 134-16 191-47s103-74 136-129 49-117 49-184m-590 0c0-41 10-79 30-113 19-34 46-61 79-81s68-30 107-30 74 10 107 30c32 19 58 46 77 81 19 34 28 72 28 113s-9 78-28 112-45 61-77 81c-33 19-68 29-107 29s-75-10-108-29c-33-20-60-47-79-81s-29-71-29-112m297-507c0-25-8-46-23-62-16-16-36-24-61-24-24 0-44 8-59 25-16 16-24 36-24 61s8 46 24 62c15 16 35 24 59 24 25 0 45-8 61-24 15-16 23-37 23-62" horiz-adv-x="806" unicode="Ọ"/><glyph d="M779 351c0-67-16-129-49-184S651 68 594 37C537 5 473-11 403-11S269 5 212 37c-57 31-102 75-135 130S27 283 27 351c0 67 17 129 50 184q49.5 82.5 135 129c57 31 120 47 191 47 70 0 134-16 191-47s103-74 136-129 49-117 49-184m-590 0c0-41 10-79 30-113 19-34 46-61 79-81s68-30 107-30 74 10 107 30c32 19 58 46 77 81 19 34 28 72 28 113s-9 78-28 112-45 61-77 81c-33 19-68 29-107 29s-75-10-108-29c-33-20-60-47-79-81s-29-71-29-112m179 565 104-153-112-10-128 110z" horiz-adv-x="806" unicode="Ò"/><glyph d="M779 351c0-67-16-129-49-184S651 68 594 37C537 5 473-11 403-11S269 5 212 37c-57 31-102 75-135 130S27 283 27 351c0 67 17 129 50 184q49.5 82.5 135 129c57 31 120 47 191 47 70 0 134-16 191-47s103-74 136-129 49-117 49-184m-590 0c0-41 10-79 30-113 19-34 46-61 79-81s68-30 107-30 74 10 107 30c32 19 58 46 77 81 19 34 28 72 28 113s-9 78-28 112-45 61-77 81c-33 19-68 29-107 29s-75-10-108-29c-33-20-60-47-79-81s-29-71-29-112m326 526c0-22-7-45-22-68-15-24-36-46-61-67l-72 31c13 13 24 26 32 40 7 14 11 27 11 38 0 8-3 14-8 19s-12 7-20 7c-12 0-24-4-37-13l-42 68c35 23 72 35 111 35 33 0 59-8 79-24 19-16 29-38 29-66" horiz-adv-x="806" unicode="Ỏ"/><glyph d="M786 742q0-51-27-90t-75-57c31-32 54-69 71-110 16-42 24-87 24-134 0-67-16-129-49-184S651 68 594 37C537 5 473-11 403-11S269 5 212 37c-57 31-102 75-135 130S27 283 27 351c0 67 17 129 50 184q49.5 82.5 135 129c57 31 120 47 191 47 63 0 121-13 173-38 11-3 19-4 26-4 19 0 34 7 45 20s16 29 16 48c0 23-7 45-22 66l118 43c18-34 27-69 27-104M617 351c0 41-9 78-28 112s-45 61-77 81c-33 19-68 29-107 29s-75-10-108-29c-33-20-60-47-79-81s-29-71-29-112 10-79 30-113c19-34 46-61 79-81s68-30 107-30 74 10 107 30c32 19 58 46 77 81 19 34 28 72 28 113" horiz-adv-x="833" unicode="Ơ"/><glyph d="M786 742q0-51-27-90t-75-57c31-32 54-69 71-110 16-42 24-87 24-134 0-67-16-129-49-184S651 68 594 37C537 5 473-11 403-11S269 5 212 37c-57 31-102 75-135 130S27 283 27 351c0 67 17 129 50 184q49.5 82.5 135 129c57 31 120 47 191 47 63 0 121-13 173-38 11-3 19-4 26-4 19 0 34 7 45 20s16 29 16 48c0 23-7 45-22 66l118 43c18-34 27-69 27-104M617 351c0 41-9 78-28 112s-45 61-77 81c-33 19-68 29-107 29s-75-10-108-29c-33-20-60-47-79-81s-29-71-29-112 10-79 30-113c19-34 46-61 79-81s68-30 107-30 74 10 107 30c32 19 58 46 77 81 19 34 28 72 28 113M438 916l136-53-136-110-112 10z" horiz-adv-x="833" unicode="Ớ"/><glyph d="M786 742q0-51-27-90t-75-57c31-32 54-69 71-110 16-42 24-87 24-134 0-67-16-129-49-184S651 68 594 37C537 5 473-11 403-11S269 5 212 37c-57 31-102 75-135 130S27 283 27 351c0 67 17 129 50 184q49.5 82.5 135 129c57 31 120 47 191 47 63 0 121-13 173-38 11-3 19-4 26-4 19 0 34 7 45 20s16 29 16 48c0 23-7 45-22 66l118 43c18-34 27-69 27-104M617 351c0 41-9 78-28 112s-45 61-77 81c-33 19-68 29-107 29s-75-10-108-29c-33-20-60-47-79-81s-29-71-29-112 10-79 30-113c19-34 46-61 79-81s68-30 107-30 74 10 107 30c32 19 58 46 77 81 19 34 28 72 28 113M486-156c0-25-8-46-23-62-16-16-36-24-61-24-24 0-44 8-59 25-16 16-24 36-24 61s8 46 24 62c15 16 35 24 59 24 25 0 45-8 61-24 15-16 23-37 23-62" horiz-adv-x="833" unicode="Ợ"/><glyph d="M786 742q0-51-27-90t-75-57c31-32 54-69 71-110 16-42 24-87 24-134 0-67-16-129-49-184S651 68 594 37C537 5 473-11 403-11S269 5 212 37c-57 31-102 75-135 130S27 283 27 351c0 67 17 129 50 184q49.5 82.5 135 129c57 31 120 47 191 47 63 0 121-13 173-38 11-3 19-4 26-4 19 0 34 7 45 20s16 29 16 48c0 23-7 45-22 66l118 43c18-34 27-69 27-104M617 351c0 41-9 78-28 112s-45 61-77 81c-33 19-68 29-107 29s-75-10-108-29c-33-20-60-47-79-81s-29-71-29-112 10-79 30-113c19-34 46-61 79-81s68-30 107-30 74 10 107 30c32 19 58 46 77 81 19 34 28 72 28 113M368 916l104-153-112-10-128 110z" horiz-adv-x="833" unicode="Ờ"/><glyph d="M786 742q0-51-27-90t-75-57c31-32 54-69 71-110 16-42 24-87 24-134 0-67-16-129-49-184S651 68 594 37C537 5 473-11 403-11S269 5 212 37c-57 31-102 75-135 130S27 283 27 351c0 67 17 129 50 184q49.5 82.5 135 129c57 31 120 47 191 47 63 0 121-13 173-38 11-3 19-4 26-4 19 0 34 7 45 20s16 29 16 48c0 23-7 45-22 66l118 43c18-34 27-69 27-104M617 351c0 41-9 78-28 112s-45 61-77 81c-33 19-68 29-107 29s-75-10-108-29c-33-20-60-47-79-81s-29-71-29-112 10-79 30-113c19-34 46-61 79-81s68-30 107-30 74 10 107 30c32 19 58 46 77 81 19 34 28 72 28 113M515 877c0-22-7-45-22-68-15-24-36-46-61-67l-72 31c13 13 24 26 32 40 7 14 11 27 11 38 0 8-3 14-8 19s-12 7-20 7c-12 0-24-4-37-13l-42 68c35 23 72 35 111 35 33 0 59-8 79-24 19-16 29-38 29-66" horiz-adv-x="833" unicode="Ở"/><glyph d="M786 742q0-51-27-90t-75-57c31-32 54-69 71-110 16-42 24-87 24-134 0-67-16-129-49-184S651 68 594 37C537 5 473-11 403-11S269 5 212 37c-57 31-102 75-135 130S27 283 27 351c0 67 17 129 50 184q49.5 82.5 135 129c57 31 120 47 191 47 63 0 121-13 173-38 11-3 19-4 26-4 19 0 34 7 45 20s16 29 16 48c0 23-7 45-22 66l118 43c18-34 27-69 27-104M617 351c0 41-9 78-28 112s-45 61-77 81c-33 19-68 29-107 29s-75-10-108-29c-33-20-60-47-79-81s-29-71-29-112 10-79 30-113c19-34 46-61 79-81s68-30 107-30 74 10 107 30c32 19 58 46 77 81 19 34 28 72 28 113M486 755c-15 0-29 3-42 8s-29 12-47 21q-12 7.5-24 12c-8 3-15 5-20 5-10 0-17-3-21-10s-6-18-7-33h-91c0 48 7 85 22 111 14 26 37 39 70 39 15 0 29-2 42-7s29-13 47-22c21-12 35-18 44-18 10 0 17 4 21 11s6 18 7 32h91c0-47-7-84-21-110-15-26-38-39-71-39" horiz-adv-x="833" unicode="Ỡ"/><glyph d="M779 351c0-67-16-129-49-184S651 68 594 37C537 5 473-11 403-11S269 5 212 37c-57 31-102 75-135 130S27 283 27 351c0 67 17 129 50 184q49.5 82.5 135 129c57 31 120 47 191 47 70 0 134-16 191-47s103-74 136-129 49-117 49-184m-590 0c0-41 10-79 30-113 19-34 46-61 79-81s68-30 107-30 74 10 107 30c32 19 58 46 77 81 19 34 28 72 28 113s-9 78-28 112-45 61-77 81c-33 19-68 29-107 29s-75-10-108-29c-33-20-60-47-79-81s-29-71-29-112m129 569 121-47-91-120-110 10m265 157 120-47-91-120-109 10z" horiz-adv-x="806" unicode="Ő"/><glyph d="M779 351c0-67-16-129-49-184S651 68 594 37C537 5 473-11 403-11S269 5 212 37c-57 31-102 75-135 130S27 283 27 351c0 67 17 129 50 184q49.5 82.5 135 129c57 31 120 47 191 47 70 0 134-16 191-47s103-74 136-129 49-117 49-184m-590 0c0-41 10-79 30-113 19-34 46-61 79-81s68-30 107-30 74 10 107 30c32 19 58 46 77 81 19 34 28 72 28 113s-9 78-28 112-45 61-77 81c-33 19-68 29-107 29s-75-10-108-29c-33-20-60-47-79-81s-29-71-29-112m58 408c1 47 16 84 45 112q43.5 42 111 42c45 0 81-14 110-42s44-65 46-112h-98c-1 17-7 32-18 43s-24 17-40 17-29-6-40-17-17-26-18-43z" horiz-adv-x="806" unicode="Ȏ"/><glyph d="M779 351c0-67-16-129-49-184S651 68 594 37C537 5 473-11 403-11S269 5 212 37c-57 31-102 75-135 130S27 283 27 351c0 67 17 129 50 184q49.5 82.5 135 129c57 31 120 47 191 47 70 0 134-16 191-47s103-74 136-129 49-117 49-184m-590 0c0-41 10-79 30-113 19-34 46-61 79-81s68-30 107-30 74 10 107 30c32 19 58 46 77 81 19 34 28 72 28 113s-9 78-28 112-45 61-77 81c-33 19-68 29-107 29s-75-10-108-29c-33-20-60-47-79-81s-29-71-29-112m48 505h332v-94H237z" horiz-adv-x="806" unicode="Ō"/><glyph d="M779 351c0-67-16-129-49-184S651 68 594 37C537 5 473-11 403-11S269 5 212 37c-57 31-102 75-135 130S27 283 27 351c0 67 17 129 50 184q49.5 82.5 135 129c57 31 120 47 191 47 70 0 134-16 191-47s103-74 136-129 49-117 49-184m-590 0c0-41 10-79 30-113 19-34 46-61 79-81s68-30 107-30 74 10 107 30c32 19 58 46 77 81 19 34 28 72 28 113s-9 78-28 112-45 61-77 81c-33 19-68 29-107 29s-75-10-108-29c-33-20-60-47-79-81s-29-71-29-112m65 500h278v-90H254m185 284 112-70-150-82-98 27z" horiz-adv-x="806" unicode="Ṓ"/><glyph d="M779 351c0-67-16-129-49-184S651 68 594 37C537 5 473-11 403-11S269 5 212 37c-57 31-102 75-135 130S27 283 27 351c0 67 17 129 50 184q49.5 82.5 135 129c57 31 120 47 191 47 70 0 134-16 191-47s103-74 136-129 49-117 49-184m-590 0c0-41 10-79 30-113 19-34 46-61 79-81s68-30 107-30 74 10 107 30c32 19 58 46 77 81 19 34 28 72 28 113s-9 78-28 112-45 61-77 81c-33 19-68 29-107 29s-75-10-108-29c-33-20-60-47-79-81s-29-71-29-112m89 500h278v-90H278m82 284 135-125-97-27-151 82z" horiz-adv-x="806" unicode="Ṑ"/><glyph d="M605 43c-22-23-40-47-53-72-14-26-21-48-21-67 0-21 8-31 24-31 11 0 21 3 30 8l28-88c-32-14-62-21-91-21-33 0-60 9-80 28-21 18-31 44-31 79 0 38 16 76 47 113-18-2-36-3-55-3-70 0-134 16-191 48-57 31-102 75-135 130S27 283 27 351c0 67 17 129 50 184q49.5 82.5 135 129c57 31 120 47 191 47 70 0 134-16 191-47s103-74 136-129 49-117 49-184c0-65-15-125-46-179S659 75 605 43m-200 84c39 0 74 10 107 30 32 19 58 46 77 81 19 34 28 72 28 113s-9 78-28 112-45 61-77 81c-33 19-68 29-107 29s-75-10-108-29c-33-20-60-47-79-81s-29-71-29-112 10-79 30-113c19-34 46-61 79-81s68-30 107-30" horiz-adv-x="806" unicode="Ǫ"/><glyph d="M779 349c0-67-16-127-49-182S651 69 594 38 473-9 403-9C348-9 297 1 248 21l-49-76H90l77 121c-44 33-78 75-103 124S27 292 27 349c0 67 16 127 49 181s78 96 135 127 121 46 192 46c53 0 104-9 153-28l51 80h109l-79-125c44-32 79-72 104-121s38-103 38-160M250 196l228 356c-22 9-46 13-73 13-39 0-75-9-108-28s-60-45-79-78-29-70-29-111c0-29 5-57 16-83q16.5-39 45-69m367 152c0 30-5 58-16 85s-27 50-46 70L326 144c25-10 51-15 79-15 39 0 74 10 107 29 32 19 58 46 77 80 19 33 28 70 28 110" horiz-adv-x="806" unicode="Ø"/><glyph d="M779 349c0-67-16-127-49-182S651 69 594 38 473-9 403-9C348-9 297 1 248 21l-49-76H90l77 121c-44 33-78 75-103 124S27 292 27 349c0 67 16 127 49 181s78 96 135 127 121 46 192 46c53 0 104-9 153-28l51 80h109l-79-125c44-32 79-72 104-121s38-103 38-160M250 196l228 356c-22 9-46 13-73 13-39 0-75-9-108-28s-60-45-79-78-29-70-29-111c0-29 5-57 16-83q16.5-39 45-69m367 152c0 30-5 58-16 85s-27 50-46 70L326 144c25-10 51-15 79-15 39 0 74 10 107 29 32 19 58 46 77 80 19 33 28 70 28 110M446 916l136-53-136-110-112 10z" horiz-adv-x="806" unicode="Ǿ"/><glyph d="M779 351c0-67-16-129-49-184S651 68 594 37C537 5 473-11 403-11S269 5 212 37c-57 31-102 75-135 130S27 283 27 351c0 67 17 129 50 184q49.5 82.5 135 129c57 31 120 47 191 47 70 0 134-16 191-47s103-74 136-129 49-117 49-184m-590 0c0-41 10-79 30-113 19-34 46-61 79-81s68-30 107-30 74 10 107 30c32 19 58 46 77 81 19 34 28 72 28 113s-9 78-28 112-45 61-77 81c-33 19-68 29-107 29s-75-10-108-29c-33-20-60-47-79-81s-29-71-29-112m297 404c-15 0-29 3-42 8s-29 12-47 21q-12 7.5-24 12c-8 3-15 5-20 5-10 0-17-3-21-10s-6-18-7-33h-91c0 48 7 85 22 111 14 26 37 39 70 39 15 0 29-2 42-7s29-13 47-22c21-12 35-18 44-18 10 0 17 4 21 11s6 18 7 32h91c0-47-7-84-21-110-15-26-38-39-71-39" horiz-adv-x="806" unicode="Õ"/><glyph d="M1389 351c0-67-16-129-49-184s-79-99-136-130c-57-32-121-48-191-48S879 5 822 37c-57 31-102 75-135 130s-50 116-50 184c0 67 17 129 50 184q49.5 82.5 135 129c57 31 120 47 191 47 70 0 134-16 191-47s103-74 136-129 49-117 49-184m-590 0c0-41 10-79 30-113 19-34 46-61 79-81s68-30 107-30 74 10 107 30c32 19 58 46 77 81 19 34 28 72 28 113s-9 78-28 112-45 61-77 81c-33 19-68 29-107 29s-75-10-108-29c-33-20-60-47-79-81s-29-71-29-112M483 757c-16 0-31 2-45 7s-30 11-49 20c-2 1-9 4-20 9-12 5-22 7-29 7-11 0-19-3-24-10s-7-17-7-30h-76c0 41 7 72 21 95q21 33 69 33c16 0 32-2 47-7s31-11 49-20c23-11 39-16 48-16 11 0 18 3 23 10s7 17 7 30h77c0-41-7-73-21-95-15-22-38-33-70-33m-33 318 112-70-150-82-98 27z" horiz-adv-x="806" unicode="Ṍ"/><glyph d="M1395 351c0-67-16-129-49-184s-79-99-136-130c-57-32-121-48-191-48S885 5 828 37c-57 31-102 75-135 130s-50 116-50 184c0 67 17 129 50 184q49.5 82.5 135 129c57 31 120 47 191 47 70 0 134-16 191-47s103-74 136-129 49-117 49-184m-590 0c0-41 10-79 30-113 19-34 46-61 79-81s68-30 107-30 74 10 107 30c32 19 58 46 77 81 19 34 28 72 28 113s-9 78-28 112-45 61-77 81c-33 19-68 29-107 29s-75-10-108-29c-33-20-60-47-79-81s-29-71-29-112M468 757c-16 0-31 2-45 7s-30 11-49 20c-2 1-9 4-20 9-12 5-22 7-29 7-11 0-19-3-24-10s-7-17-7-30h-76c0 41 7 72 21 95q21 33 69 33c16 0 32-2 47-7s31-11 49-20c23-11 39-16 48-16 11 0 18 3 23 10s7 17 7 30h77c0-41-7-73-21-95-15-22-38-33-70-33M366 993c0-20-6-37-19-50-13-14-30-21-50-21s-36 7-49 21c-13 13-20 30-20 50 0 21 7 38 20 51s29 20 49 20 37-7 50-20 19-30 19-51m185 0c0-20-6-37-19-50-13-14-30-21-49-21-20 0-37 7-50 21-13 13-20 30-20 50 0 21 7 38 20 51s29 20 50 20c19 0 36-7 49-20s19-30 19-51" horiz-adv-x="806" unicode="Ṏ"/><glyph d="M1389 351c0-67-16-129-49-184s-79-99-136-130c-57-32-121-48-191-48S879 5 822 37c-57 31-102 75-135 130s-50 116-50 184c0 67 17 129 50 184q49.5 82.5 135 129c57 31 120 47 191 47 70 0 134-16 191-47s103-74 136-129 49-117 49-184m-590 0c0-41 10-79 30-113 19-34 46-61 79-81s68-30 107-30 74 10 107 30c32 19 58 46 77 81 19 34 28 72 28 113s-9 78-28 112-45 61-77 81c-33 19-68 29-107 29s-75-10-108-29c-33-20-60-47-79-81s-29-71-29-112M483 757c-16 0-31 2-45 7s-30 11-49 20c-2 1-9 4-20 9-12 5-22 7-29 7-11 0-19-3-24-10s-7-17-7-30h-76c0 41 7 72 21 95q21 33 69 33c16 0 32-2 47-7s31-11 49-20c23-11 39-16 48-16 11 0 18 3 23 10s7 17 7 30h77c0-41-7-73-21-95-15-22-38-33-70-33m-218 258h278v-90H265z" horiz-adv-x="806" unicode="Ȭ"/><glyph d="M1061 132V0H402c-70 0-133 15-190 46Q126.5 92.5 77 172c-33 53-50 113-50 178s16 125 49 178q49.5 79.5 135 126c57 31 121 46 191 46h648V569H675V417h337V286H675V132m-158 3v429H403c-40 0-76-9-109-28s-58-44-77-77-28-69-28-110 9-77 28-110 44-58 77-77 69-28 109-28z" horiz-adv-x="1108" unicode="Œ"/><glyph d="M654 457c0-81-24-144-73-189s-118-68-207-68H235V0H77v700h297q133.5 0 207-63c49-43 73-103 73-180m-150-5c0 39-12 68-35 88-24 19-58 29-103 29H235V332h131c45 0 79 10 103 31 23 20 35 50 35 89" horiz-adv-x="678" unicode="P"/><glyph d="M662 367c0-79-26-141-78-185-53-45-125-67-218-67H235V0H77v700h158v-94h131c93 0 165-21 218-63 52-42 78-101 78-176m-162-5c0 38-12 67-36 88q-36 30-105 30H235V241h124c46 0 81 10 105 31q36 31.5 36 90" horiz-adv-x="685" unicode="Þ"/><glyph d="M816-85c-27-24-58-43-93-56q-54-21-105-21c-47 0-89 13-127 40q-58.5 39-96 111c-69 1-132 18-188 50S107 114 75 169 27 284 27 351s17 129 50 184q49.5 82.5 135 129c57 31 120 47 191 47 70 0 134-16 191-47s103-74 136-129 49-117 49-184c0-77-21-146-64-207S614 39 543 13c30-33 61-50 93-50q25.5 0 57 15c21 9 43 23 66 40M405 127c39 0 74 10 107 30 32 19 58 46 77 81 19 34 28 72 28 113s-9 78-28 112-45 61-77 81c-33 19-68 29-107 29s-75-10-108-29c-33-20-60-47-79-81s-29-71-29-112 10-79 30-113c19-34 46-61 79-81s68-30 107-30" horiz-adv-x="812" unicode="Q"/><glyph d="M507 0 396 200H235V0H77v700h304c91 0 162-21 212-63q75-64.5 75-180 0-81-33-138c-23-39-55-68-98-88L686 0M235 332h146c44 0 78 10 102 31 23 20 35 50 35 89s-12 68-35 88c-24 19-58 29-102 29H235z" horiz-adv-x="724" unicode="R"/><glyph d="M507 0 396 200H235V0H77v700h304c91 0 162-21 212-63q75-64.5 75-180 0-81-33-138c-23-39-55-68-98-88L686 0M235 332h146c44 0 78 10 102 31 23 20 35 50 35 89s-12 68-35 88c-24 19-58 29-102 29H235m151 347 136-53-136-110-112 10z" horiz-adv-x="724" unicode="Ŕ"/><glyph d="M507 0 396 200H235V0H77v700h304c91 0 162-21 212-63q75-64.5 75-180 0-81-33-138c-23-39-55-68-98-88L686 0M235 332h146c44 0 78 10 102 31 23 20 35 50 35 89s-12 68-35 88c-24 19-58 29-102 29H235m154 337h121L402 758H261L152 906h122l58-65z" horiz-adv-x="724" unicode="Ř"/><glyph d="M507 0 396 200H235V0H77v700h304c91 0 162-21 212-63q75-64.5 75-180 0-81-33-138c-23-39-55-68-98-88L686 0M235 332h146c44 0 78 10 102 31 23 20 35 50 35 89s-12 68-35 88c-24 19-58 29-102 29H235m60-628h130l-68-170h-95z" horiz-adv-x="724" unicode="Ŗ"/><glyph d="M507 0 396 200H235V0H77v700h304c91 0 162-21 212-63q75-64.5 75-180 0-81-33-138c-23-39-55-68-98-88L686 0M235 332h146c44 0 78 10 102 31 23 20 35 50 35 89s-12 68-35 88c-24 19-58 29-102 29H235m12 350 79-157-109-10-91 120m305 47 80-157-109-10-91 120z" horiz-adv-x="724" unicode="Ȑ"/><glyph d="M507 0 396 200H235V0H77v700h304c91 0 162-21 212-63q75-64.5 75-180 0-81-33-138c-23-39-55-68-98-88L686 0M235 332h146c44 0 78 10 102 31 23 20 35 50 35 89s-12 68-35 88c-24 19-58 29-102 29H235m208-725c0-25-8-46-23-62-16-16-36-24-61-24-24 0-44 8-59 25-16 16-24 36-24 61s8 46 24 62c15 16 35 24 59 24 25 0 45-8 61-24 15-16 23-37 23-62" horiz-adv-x="724" unicode="Ṛ"/><glyph d="M507 0 396 200H235V0H77v700h304c91 0 162-21 212-63q75-64.5 75-180 0-81-33-138c-23-39-55-68-98-88L686 0M235 332h146c44 0 78 10 102 31 23 20 35 50 35 89s-12 68-35 88c-24 19-58 29-102 29H235m-40 190c1 47 16 84 45 112q43.5 42 111 42c45 0 81-14 110-42s44-65 46-112h-98c-1 17-7 32-18 43s-24 17-40 17-29-6-40-17-17-26-18-43z" horiz-adv-x="724" unicode="Ȓ"/><glyph d="M507 0 396 200H235V0H77v700h304c91 0 162-21 212-63q75-64.5 75-180 0-81-33-138c-23-39-55-68-98-88L686 0M235 332h146c44 0 78 10 102 31 23 20 35 50 35 89s-12 68-35 88c-24 19-58 29-102 29H235M208-78h303v-94H208z" horiz-adv-x="724" unicode="Ṟ"/><glyph d="M320 577c-27 0-49-5-65-15s-24-25-24-44c0-25 12-43 35-56s58-27 106-41 88-28 119-42 57-35 79-63q33-42 33-111c0-45-12-83-35-115-24-33-57-57-98-74S382-9 329-9C272-9 217 1 162 21S60 68 20 103l63 129c35-32 76-58 122-77s88-29 126-29c33 0 58 6 77 18 18 12 27 29 27 52q0 27-18 45c-13 11-28 21-47 28s-46 16-79 25c-48 13-87 27-117 40-31 13-57 34-79 61s-33 64-33 109c0 42 11 79 34 111 23 31 54 56 95 73s88 25 142 25c48 0 95-7 142-21s88-33 124-56l-61-131c-36 22-74 40-114 53-41 13-75 19-104 19" horiz-adv-x="637" unicode="S"/><glyph d="M320 577c-27 0-49-5-65-15s-24-25-24-44c0-25 12-43 35-56s58-27 106-41 88-28 119-42 57-35 79-63q33-42 33-111c0-45-12-83-35-115-24-33-57-57-98-74S382-9 329-9C272-9 217 1 162 21S60 68 20 103l63 129c35-32 76-58 122-77s88-29 126-29c33 0 58 6 77 18 18 12 27 29 27 52q0 27-18 45c-13 11-28 21-47 28s-46 16-79 25c-48 13-87 27-117 40-31 13-57 34-79 61s-33 64-33 109c0 42 11 79 34 111 23 31 54 56 95 73s88 25 142 25c48 0 95-7 142-21s88-33 124-56l-61-131c-36 22-74 40-114 53-41 13-75 19-104 19m48 339 136-53-136-110-112 10z" horiz-adv-x="637" unicode="Ś"/><glyph d="M791 577c-27 0-49-5-65-15s-24-25-24-44c0-25 12-43 35-56s58-27 106-41 88-28 119-42 57-35 79-63q33-42 33-111c0-45-12-83-35-115-24-33-57-57-98-74S853-9 800-9C743-9 688 1 633 21s-102 47-142 82l63 129c35-32 76-58 122-77s88-29 126-29c33 0 58 6 77 18 18 12 27 29 27 52q0 27-18 45c-13 11-28 21-47 28s-46 16-79 25c-48 13-87 27-117 40-31 13-57 34-79 61s-33 64-33 109c0 42 11 79 34 111 23 31 54 56 95 73s88 25 142 25c48 0 95-7 142-21s88-33 124-56l-61-131c-36 22-74 40-114 53-41 13-75 19-104 19M344 898l112-70-150-82-98 27m199 224q0-33-21-54c-15-15-33-22-54-22s-39 7-53 22q-21 21-21 54c0 22 7 40 21 55 14 14 32 21 53 21q31.5 0 54-21c14-14 21-32 21-55" horiz-adv-x="637" unicode="Ṥ"/><glyph d="M68 700h158l-19-400H68z" horiz-adv-x="294" unicode="Ꞌ"/><glyph d="M320 577c-27 0-49-5-65-15s-24-25-24-44c0-25 12-43 35-56s58-27 106-41 88-28 119-42 57-35 79-63q33-42 33-111c0-45-12-83-35-115-24-33-57-57-98-74S382-9 329-9C272-9 217 1 162 21S60 68 20 103l63 129c35-32 76-58 122-77s88-29 126-29c33 0 58 6 77 18 18 12 27 29 27 52q0 27-18 45c-13 11-28 21-47 28s-46 16-79 25c-48 13-87 27-117 40-31 13-57 34-79 61s-33 64-33 109c0 42 11 79 34 111 23 31 54 56 95 73s88 25 142 25c48 0 95-7 142-21s88-33 124-56l-61-131c-36 22-74 40-114 53-41 13-75 19-104 19m51 329h121L384 758H243L134 906h122l58-65z" horiz-adv-x="637" unicode="Š"/><glyph d="M867 577c-27 0-49-5-65-15s-24-25-24-44c0-25 12-43 35-56s58-27 106-41 88-28 119-42 57-35 79-63q33-42 33-111c0-45-12-83-35-115-24-33-57-57-98-74S929-9 876-9C819-9 764 1 709 21s-102 47-142 82l63 129c35-32 76-58 122-77s88-29 126-29c33 0 58 6 77 18 18 12 27 29 27 52q0 27-18 45c-13 11-28 21-47 28s-46 16-79 25c-48 13-87 27-117 40-31 13-57 34-79 61s-33 64-33 109c0 42 11 79 34 111 23 31 54 56 95 73s88 25 142 25c48 0 95-7 142-21s88-33 124-56l-61-131c-36 22-74 40-114 53-41 13-75 19-104 19M408 874h134L431 759H257L145 874h134l64-57m74 170q0-33-21-54c-15-15-33-22-54-22s-39 7-53 22q-21 21-21 54c0 22 7 40 21 55 14 14 32 21 53 21q31.5 0 54-21c14-14 21-32 21-55" horiz-adv-x="637" unicode="Ṧ"/><glyph d="M372 421c48-14 88-28 119-42s57-35 79-63q33-42 33-111c0-60-20-108-61-145S446 1 379-6l-18-48c28-6 49-16 62-30 13-15 20-32 20-51 0-31-12-54-35-70s-53-24-88-24q-51 0-105 21l26 75c18-7 36-10 54-10 12 0 22 2 30 7 7 4 11 9 11 15 0 8-5 14-14 19-9 4-22 6-38 6h-27l29 89c-49 5-97 17-143 36-47 19-88 44-123 74l63 129c35-32 76-58 122-77s88-29 126-29c33 0 58 6 77 18 18 12 27 29 27 52q0 27-18 45c-13 11-28 21-47 28s-46 16-79 25c-48 13-87 27-117 40-31 13-57 34-79 61s-33 64-33 109c0 42 11 79 34 111 23 31 54 56 95 73s88 25 142 25c48 0 95-7 142-21s88-33 124-56l-61-131c-36 22-74 40-114 53-41 13-75 19-104 19-27 0-49-5-65-15s-24-25-24-44c0-25 12-43 35-56s58-27 106-41" horiz-adv-x="637" unicode="Ş"/><glyph d="M320 577c-27 0-49-5-65-15s-24-25-24-44c0-25 12-43 35-56s58-27 106-41 88-28 119-42 57-35 79-63q33-42 33-111c0-45-12-83-35-115-24-33-57-57-98-74S382-9 329-9C272-9 217 1 162 21S60 68 20 103l63 129c35-32 76-58 122-77s88-29 126-29c33 0 58 6 77 18 18 12 27 29 27 52q0 27-18 45c-13 11-28 21-47 28s-46 16-79 25c-48 13-87 27-117 40-31 13-57 34-79 61s-33 64-33 109c0 42 11 79 34 111 23 31 54 56 95 73s88 25 142 25c48 0 95-7 142-21s88-33 124-56l-61-131c-36 22-74 40-114 53-41 13-75 19-104 19m192 182H390l-57 65-58-65H154l108 148h141z" horiz-adv-x="637" unicode="Ŝ"/><glyph d="M320 577c-27 0-49-5-65-15s-24-25-24-44c0-25 12-43 35-56s58-27 106-41 88-28 119-42 57-35 79-63q33-42 33-111c0-45-12-83-35-115-24-33-57-57-98-74S382-9 329-9C272-9 217 1 162 21S60 68 20 103l63 129c35-32 76-58 122-77s88-29 126-29c33 0 58 6 77 18 18 12 27 29 27 52q0 27-18 45c-13 11-28 21-47 28s-46 16-79 25c-48 13-87 27-117 40-31 13-57 34-79 61s-33 64-33 109c0 42 11 79 34 111 23 31 54 56 95 73s88 25 142 25c48 0 95-7 142-21s88-33 124-56l-61-131c-36 22-74 40-114 53-41 13-75 19-104 19M261-59h130l-68-170h-95z" horiz-adv-x="637" unicode="Ș"/><glyph d="M320 577c-27 0-49-5-65-15s-24-25-24-44c0-25 12-43 35-56s58-27 106-41 88-28 119-42 57-35 79-63q33-42 33-111c0-45-12-83-35-115-24-33-57-57-98-74S382-9 329-9C272-9 217 1 162 21S60 68 20 103l63 129c35-32 76-58 122-77s88-29 126-29c33 0 58 6 77 18 18 12 27 29 27 52q0 27-18 45c-13 11-28 21-47 28s-46 16-79 25c-48 13-87 27-117 40-31 13-57 34-79 61s-33 64-33 109c0 42 11 79 34 111 23 31 54 56 95 73s88 25 142 25c48 0 95-7 142-21s88-33 124-56l-61-131c-36 22-74 40-114 53-41 13-75 19-104 19m97 265c0-25-8-45-23-61-16-17-36-25-61-25-24 0-44 8-59 25-16 16-24 36-24 61q0 37.5 24 63c15 16 35 24 59 24 25 0 45-8 61-24 15-17 23-38 23-63" horiz-adv-x="637" unicode="Ṡ"/><glyph d="M320 577c-27 0-49-5-65-15s-24-25-24-44c0-25 12-43 35-56s58-27 106-41 88-28 119-42 57-35 79-63q33-42 33-111c0-45-12-83-35-115-24-33-57-57-98-74S382-9 329-9C272-9 217 1 162 21S60 68 20 103l63 129c35-32 76-58 122-77s88-29 126-29c33 0 58 6 77 18 18 12 27 29 27 52q0 27-18 45c-13 11-28 21-47 28s-46 16-79 25c-48 13-87 27-117 40-31 13-57 34-79 61s-33 64-33 109c0 42 11 79 34 111 23 31 54 56 95 73s88 25 142 25c48 0 95-7 142-21s88-33 124-56l-61-131c-36 22-74 40-114 53-41 13-75 19-104 19m89-733c0-25-8-46-23-62-16-16-36-24-61-24-24 0-44 8-59 25-16 16-24 36-24 61s8 46 24 62c15 16 35 24 59 24 25 0 45-8 61-24 15-16 23-37 23-62" horiz-adv-x="637" unicode="Ṣ"/><glyph d="M320 577c-27 0-49-5-65-15s-24-25-24-44c0-25 12-43 35-56s58-27 106-41 88-28 119-42 57-35 79-63q33-42 33-111c0-45-12-83-35-115-24-33-57-57-98-74S382-9 329-9C272-9 217 1 162 21S60 68 20 103l63 129c35-32 76-58 122-77s88-29 126-29c33 0 58 6 77 18 18 12 27 29 27 52q0 27-18 45c-13 11-28 21-47 28s-46 16-79 25c-48 13-87 27-117 40-31 13-57 34-79 61s-33 64-33 109c0 42 11 79 34 111 23 31 54 56 95 73s88 25 142 25c48 0 95-7 142-21s88-33 124-56l-61-131c-36 22-74 40-114 53-41 13-75 19-104 19m89-733c0-25-8-46-23-62-16-16-36-24-61-24-24 0-44 8-59 25-16 16-24 36-24 61s8 46 24 62c15 16 35 24 59 24 25 0 45-8 61-24 15-16 23-37 23-62m1 998c0-25-8-45-23-61-16-17-36-25-61-25-24 0-44 8-59 25-16 16-24 36-24 61q0 37.5 24 63c15 16 35 24 59 24 25 0 45-8 61-24 15-17 23-38 23-63" horiz-adv-x="637" unicode="Ṩ"/><glyph d="M672 206c0-63-22-113-67-150S496 0 414 0h-81v129h67c34 0 61 8 81 23 19 15 29 36 29 63s-10 49-29 64-46 23-81 23h-35v108l121 143c-28 13-61 20-100 20-53 0-93-15-122-45s-44-72-44-125V0H62v395c0 99 28 175 83 230s132 82 231 82c93 0 173-25 242-74V512l-96-114c48-13 85-37 111-70s39-74 39-122" horiz-adv-x="698" unicode="ẞ"/><glyph d="M28 387h567c-5 35-16 67-35 96-19 28-42 50-71 66q-43.5 24-93 24c-36 0-69-8-100-25s-57-41-77-70L108 590c74 81 169 121 286 121 68 0 130-16 185-47s98-74 130-129c31-55 47-117 47-184s-16-129-47-184c-32-55-76-99-131-130-55-32-117-48-184-48-72 0-136 17-191 50Q120.5 88.5 74 180c-31 60-46 129-46 207m560-111H200q19.5-67.5 72-108c35-27 76-41 124-41 47 0 87 14 122 41s58 63 70 108" horiz-adv-x="787" unicode="Ə"/><glyph d="M8 700h585V566H379V0H221v566H8z" horiz-adv-x="601" unicode="T"/><glyph d="M593 566H379V361h135v-87H379V0H221v274H84v87h137v205H8v134h585z" horiz-adv-x="601" unicode="Ŧ"/><glyph d="M8 700h585V566H379V0H221v566H8m341 340h121L362 758H221L112 906h122l58-65z" horiz-adv-x="601" unicode="Ť"/><glyph d="m355 0-20-54c28-6 49-16 62-30 13-15 20-32 20-51 0-31-12-54-35-70s-53-24-88-24q-51 0-105 21l26 75c18-7 36-10 54-10 12 0 22 2 30 7 7 4 11 9 11 15 0 8-5 14-14 19-9 4-22 6-38 6h-27l31 96h-41v566H8v134h585V566H379V0z" horiz-adv-x="601" unicode="Ţ"/><glyph d="M8 700h585V566H379V0H221v566H8M235-59h130l-68-170h-95z" horiz-adv-x="601" unicode="Ț"/><glyph d="M8 700h585V566H379V0H221v566H8m375-722c0-25-8-46-23-62-16-16-36-24-61-24-24 0-44 8-59 25-16 16-24 36-24 61s8 46 24 62c15 16 35 24 59 24 25 0 45-8 61-24 15-16 23-37 23-62" horiz-adv-x="601" unicode="Ṭ"/><glyph d="M8 700h585V566H379V0H221v566H8M148-78h303v-94H148z" horiz-adv-x="601" unicode="Ṯ"/><glyph d="M379 127c46 0 83 14 110 43s41 68 41 119v411h158V289c0-61-12-114-37-159S590 50 543 26C496 1 441-11 378-11S259 1 212 26c-47 24-84 59-109 104s-38 98-38 159v411h158V289c0-50 14-89 43-118 28-29 66-44 113-44" horiz-adv-x="753" unicode="U"/><glyph d="M379 127c46 0 83 14 110 43s41 68 41 119v411h158V289c0-61-12-114-37-159S590 50 543 26C496 1 441-11 378-11S259 1 212 26c-47 24-84 59-109 104s-38 98-38 159v411h158V289c0-50 14-89 43-118 28-29 66-44 113-44m33 789 136-53-136-110-112 10z" horiz-adv-x="753" unicode="Ú"/><glyph d="M379 127c46 0 83 14 110 43s41 68 41 119v411h158V289c0-61-12-114-37-159S590 50 543 26C496 1 441-11 378-11S259 1 212 26c-47 24-84 59-109 104s-38 98-38 159v411h158V289c0-50 14-89 43-118 28-29 66-44 113-44m-2 723c16 0 29 6 40 17s17 25 18 43h98c-2-47-17-84-46-112s-65-42-110-42q-67.5 0-111 42c-29 28-44 65-45 112h98c1-18 7-32 18-43s24-17 40-17" horiz-adv-x="753" unicode="Ŭ"/><glyph d="M379 127c46 0 83 14 110 43s41 68 41 119v411h158V289c0-61-12-114-37-159S590 50 543 26C496 1 441-11 378-11S259 1 212 26c-47 24-84 59-109 104s-38 98-38 159v411h158V289c0-50 14-89 43-118 28-29 66-44 113-44m177 632H434l-57 65-58-65H198l108 148h141z" horiz-adv-x="753" unicode="Û"/><glyph d="M379 127c46 0 83 14 110 43s41 68 41 119v411h158V289c0-61-12-114-37-159S590 50 543 26C496 1 441-11 378-11S259 1 212 26c-47 24-84 59-109 104s-38 98-38 159v411h158V289c0-50 14-89 43-118 28-29 66-44 113-44M273 919l79-157-109-10-91 120m305 47 80-157-109-10-91 120z" horiz-adv-x="753" unicode="Ȕ"/><glyph d="M379 127c46 0 83 14 110 43s41 68 41 119v411h158V289c0-61-12-114-37-159S590 50 543 26C496 1 441-11 378-11S259 1 212 26c-47 24-84 59-109 104s-38 98-38 159v411h158V289c0-50 14-89 43-118 28-29 66-44 113-44m-25 701c0-21-6-38-19-51q-19.5-21-51-21c-21 0-37 7-50 21-13 13-20 30-20 51s7 39 20 52 29 20 50 20 38-7 51-20 19-31 19-52m187 0c0-21-7-38-20-51-13-14-30-21-50-21q-31.5 0-51 21c-13 13-20 30-20 51s7 38 20 52c13 13 30 20 51 20 20 0 37-7 50-20 13-14 20-31 20-52" horiz-adv-x="753" unicode="Ü"/><glyph d="M379 127c46 0 83 14 110 43s41 68 41 119v411h158V289c0-61-12-114-37-159S590 50 543 26C496 1 441-11 378-11S259 1 212 26c-47 24-84 59-109 104s-38 98-38 159v411h158V289c0-50 14-89 43-118 28-29 66-44 113-44m81-283c0-25-8-46-23-62-16-16-36-24-61-24-24 0-44 8-59 25-16 16-24 36-24 61s8 46 24 62c15 16 35 24 59 24 25 0 45-8 61-24 15-16 23-37 23-62" horiz-adv-x="753" unicode="Ụ"/><glyph d="M379 127c46 0 83 14 110 43s41 68 41 119v411h158V289c0-61-12-114-37-159S590 50 543 26C496 1 441-11 378-11S259 1 212 26c-47 24-84 59-109 104s-38 98-38 159v411h158V289c0-50 14-89 43-118 28-29 66-44 113-44m-37 789 104-153-112-10-128 110z" horiz-adv-x="753" unicode="Ù"/><glyph d="M379 127c46 0 83 14 110 43s41 68 41 119v411h158V289c0-61-12-114-37-159S590 50 543 26C496 1 441-11 378-11S259 1 212 26c-47 24-84 59-109 104s-38 98-38 159v411h158V289c0-50 14-89 43-118 28-29 66-44 113-44m110 750c0-22-7-45-22-68-15-24-36-46-61-67l-72 31c13 13 24 26 32 40 7 14 11 27 11 38 0 8-3 14-8 19s-12 7-20 7c-12 0-24-4-37-13l-42 68c35 23 72 35 111 35 33 0 59-8 79-24 19-16 29-38 29-66" horiz-adv-x="753" unicode="Ủ"/><glyph d="M809 752c0-35-10-63-31-85-21-23-51-38-90-46V289c0-61-12-114-37-159S590 50 543 26C496 1 441-11 378-11S259 1 212 26c-47 24-84 59-109 104s-38 98-38 159v411h158V289c0-50 14-89 43-118 28-29 66-44 113-44 46 0 83 14 110 43s41 68 41 119v411h101v1c21 0 36 5 47 14 10 9 15 22 15 37 0 17-5 34-16 52l111 42c14-35 21-66 21-94" horiz-adv-x="794" unicode="Ư"/><glyph d="M809 752c0-35-10-63-31-85-21-23-51-38-90-46V289c0-61-12-114-37-159S590 50 543 26C496 1 441-11 378-11S259 1 212 26c-47 24-84 59-109 104s-38 98-38 159v411h158V289c0-50 14-89 43-118 28-29 66-44 113-44 46 0 83 14 110 43s41 68 41 119v411h101v1c21 0 36 5 47 14 10 9 15 22 15 37 0 17-5 34-16 52l111 42c14-35 21-66 21-94M412 916l136-53-136-110-112 10z" horiz-adv-x="794" unicode="Ứ"/><glyph d="M809 752c0-35-10-63-31-85-21-23-51-38-90-46V289c0-61-12-114-37-159S590 50 543 26C496 1 441-11 378-11S259 1 212 26c-47 24-84 59-109 104s-38 98-38 159v411h158V289c0-50 14-89 43-118 28-29 66-44 113-44 46 0 83 14 110 43s41 68 41 119v411h101v1c21 0 36 5 47 14 10 9 15 22 15 37 0 17-5 34-16 52l111 42c14-35 21-66 21-94M459-156c0-25-8-46-23-62-16-16-36-24-61-24-24 0-44 8-59 25-16 16-24 36-24 61s8 46 24 62c15 16 35 24 59 24 25 0 45-8 61-24 15-16 23-37 23-62" horiz-adv-x="793" unicode="Ự"/><glyph d="M809 752c0-35-10-63-31-85-21-23-51-38-90-46V289c0-61-12-114-37-159S590 50 543 26C496 1 441-11 378-11S259 1 212 26c-47 24-84 59-109 104s-38 98-38 159v411h158V289c0-50 14-89 43-118 28-29 66-44 113-44 46 0 83 14 110 43s41 68 41 119v411h101v1c21 0 36 5 47 14 10 9 15 22 15 37 0 17-5 34-16 52l111 42c14-35 21-66 21-94M342 916l104-153-112-10-128 110z" horiz-adv-x="794" unicode="Ừ"/><glyph d="M809 752c0-35-10-63-31-85-21-23-51-38-90-46V289c0-61-12-114-37-159S590 50 543 26C496 1 441-11 378-11S259 1 212 26c-47 24-84 59-109 104s-38 98-38 159v411h158V289c0-50 14-89 43-118 28-29 66-44 113-44 46 0 83 14 110 43s41 68 41 119v411h101v1c21 0 36 5 47 14 10 9 15 22 15 37 0 17-5 34-16 52l111 42c14-35 21-66 21-94M488 877c0-22-7-45-22-68-15-24-36-46-61-67l-72 31c13 13 24 26 32 40 7 14 11 27 11 38 0 8-3 14-8 19s-12 7-20 7c-12 0-24-4-37-13l-42 68c35 23 72 35 111 35 33 0 59-8 79-24 19-16 29-38 29-66" horiz-adv-x="794" unicode="Ử"/><glyph d="M809 752c0-35-10-63-31-85-21-23-51-38-90-46V289c0-61-12-114-37-159S590 50 543 26C496 1 441-11 378-11S259 1 212 26c-47 24-84 59-109 104s-38 98-38 159v411h158V289c0-50 14-89 43-118 28-29 66-44 113-44 46 0 83 14 110 43s41 68 41 119v411h101v1c21 0 36 5 47 14 10 9 15 22 15 37 0 17-5 34-16 52l111 42c14-35 21-66 21-94m-349 3c-15 0-29 3-42 8s-29 12-47 21q-12 7.5-24 12c-8 3-15 5-20 5-10 0-17-3-21-10s-6-18-7-33h-91c0 48 7 85 22 111 14 26 37 39 70 39 15 0 29-2 42-7s29-13 47-22c21-12 35-18 44-18 10 0 17 4 21 11s6 18 7 32h91c0-47-7-84-21-110-15-26-38-39-71-39" horiz-adv-x="794" unicode="Ữ"/><glyph d="M379 127c46 0 83 14 110 43s41 68 41 119v411h158V289c0-61-12-114-37-159S590 50 543 26C496 1 441-11 378-11S259 1 212 26c-47 24-84 59-109 104s-38 98-38 159v411h158V289c0-50 14-89 43-118 28-29 66-44 113-44m-87 793 121-47-91-120-110 10m265 157 120-47-91-120-109 10z" horiz-adv-x="753" unicode="Ű"/><glyph d="M379 127c46 0 83 14 110 43s41 68 41 119v411h158V289c0-61-12-114-37-159S590 50 543 26C496 1 441-11 378-11S259 1 212 26c-47 24-84 59-109 104s-38 98-38 159v411h158V289c0-50 14-89 43-118 28-29 66-44 113-44M221 759c1 47 16 84 45 112q43.5 42 111 42c45 0 81-14 110-42s44-65 46-112h-98c-1 17-7 32-18 43s-24 17-40 17-29-6-40-17-17-26-18-43z" horiz-adv-x="753" unicode="Ȗ"/><glyph d="M379 127c46 0 83 14 110 43s41 68 41 119v411h158V289c0-61-12-114-37-159S590 50 543 26C496 1 441-11 378-11S259 1 212 26c-47 24-84 59-109 104s-38 98-38 159v411h158V289c0-50 14-89 43-118 28-29 66-44 113-44M211 856h332v-94H211z" horiz-adv-x="753" unicode="Ū"/><glyph d="M968 127c46 0 83 14 110 43s41 68 41 119v411h158V289c0-61-12-114-37-159s-61-80-108-104c-47-25-102-37-165-37S848 1 801 26c-47 24-84 59-109 104s-38 98-38 159v411h158V289c0-50 14-89 43-118 28-29 66-44 113-44M211 851h278v-90H211m116 202c0-20-6-37-19-50-13-14-30-21-50-21s-36 7-49 21c-13 13-20 30-20 50 0 21 7 38 20 51s29 20 49 20 37-7 50-20 19-30 19-51m185 0c0-20-6-37-19-50-13-14-30-21-49-21-20 0-37 7-50 21-13 13-20 30-20 50 0 21 7 38 20 51s29 20 50 20c19 0 36-7 49-20s19-30 19-51" horiz-adv-x="753" unicode="Ṻ"/><glyph d="M688 700V289c0-53-9-101-28-142s-47-75-83-101c-23-23-42-47-56-73-15-27-22-50-22-69 0-21 8-31 24-31 11 0 21 3 30 8l28-88c-32-14-62-21-91-21-33 0-60 9-80 28-21 18-31 44-31 79 0 39 15 77 46 112-20-1-36-2-47-2-63 0-119 12-166 37-47 24-84 59-109 104s-38 98-38 159v411h158V289c0-50 14-89 43-118 28-29 66-44 113-44 46 0 83 14 110 43s41 68 41 119v411z" horiz-adv-x="753" unicode="Ų"/><glyph d="M379 127c46 0 83 14 110 43s41 68 41 119v411h158V289c0-61-12-114-37-159S590 50 543 26C496 1 441-11 378-11S259 1 212 26c-47 24-84 59-109 104s-38 98-38 159v411h158V289c0-50 14-89 43-118 28-29 66-44 113-44m114 730c0-32-11-59-34-82s-50-34-82-34-59 11-82 34-34 50-34 82c0 31 11 58 34 81s50 34 82 34 59-11 82-34 34-50 34-81m-163 0c0-13 5-23 14-32s20-14 33-14 25 5 34 14 13 19 13 32-4 23-13 32-21 13-34 13-24-4-33-13-14-19-14-32" horiz-adv-x="753" unicode="Ů"/><glyph d="M379 127c46 0 83 14 110 43s41 68 41 119v411h158V289c0-61-12-114-37-159S590 50 543 26C496 1 441-11 378-11S259 1 212 26c-47 24-84 59-109 104s-38 98-38 159v411h158V289c0-50 14-89 43-118 28-29 66-44 113-44m81 628c-15 0-29 3-42 8s-29 12-47 21q-12 7.5-24 12c-8 3-15 5-20 5-10 0-17-3-21-10s-6-18-7-33h-91c0 48 7 85 22 111 14 26 37 39 70 39 15 0 29-2 42-7s29-13 47-22c21-12 35-18 44-18 10 0 17 4 21 11s6 18 7 32h91c0-47-7-84-21-110-15-26-38-39-71-39" horiz-adv-x="753" unicode="Ũ"/><glyph d="M379 127c46 0 83 14 110 43s41 68 41 119v411h158V289c0-61-12-114-37-159S590 50 543 26C496 1 441-11 378-11S259 1 212 26c-47 24-84 59-109 104s-38 98-38 159v411h158V289c0-50 14-89 43-118 28-29 66-44 113-44m78 630c-16 0-31 2-45 7s-30 11-49 20c-2 1-9 4-20 9-12 5-22 7-29 7-11 0-19-3-24-10s-7-17-7-30h-76c0 41 7 72 21 95q21 33 69 33c16 0 32-2 47-7s31-11 49-20c23-11 39-16 48-16 11 0 18 3 23 10s7 17 7 30h77c0-41-7-73-21-95-15-22-38-33-70-33m-33 318 112-70-150-82-98 27z" horiz-adv-x="753" unicode="Ṹ"/><glyph d="M0 700h170l191-528 192 528h163L438 0H275z" horiz-adv-x="716" unicode="V"/><glyph d="M931 700h163L857 0H694L547 505 398 0H236L0 700h170l152-534 151 534h155l153-534z" horiz-adv-x="1094" unicode="W"/><glyph d="M931 700h163L857 0H694L547 505 398 0H236L0 700h170l152-534 151 534h155l153-534M583 916l136-53-136-110-112 10z" horiz-adv-x="1094" unicode="Ẃ"/><glyph d="M931 700h163L857 0H694L547 505 398 0H236L0 700h170l152-534 151 534h155l153-534m-54 593H605l-57 65-58-65H369l108 148h141z" horiz-adv-x="1094" unicode="Ŵ"/><glyph d="M931 700h163L857 0H694L547 505 398 0H236L0 700h170l152-534 151 534h155l153-534M525 828c0-21-6-38-19-51q-19.5-21-51-21c-21 0-37 7-50 21-13 13-20 30-20 51s7 39 20 52 29 20 50 20 38-7 51-20 19-31 19-52m187 0c0-21-7-38-20-51-13-14-30-21-50-21q-31.5 0-51 21c-13 13-20 30-20 51s7 38 20 52c13 13 30 20 51 20 20 0 37-7 50-20 13-14 20-31 20-52" horiz-adv-x="1094" unicode="Ẅ"/><glyph d="M931 700h163L857 0H694L547 505 398 0H236L0 700h170l152-534 151 534h155l153-534M513 916l104-153-112-10-128 110z" horiz-adv-x="1094" unicode="Ẁ"/><glyph d="M25 700h184l146-214 147 214h187L456 365 709 0H520L355 233 193 0H8l251 358z" horiz-adv-x="721" unicode="X"/><glyph d="M669 700 414 226V0H256v222L-3 700h159l179-314 175 314z" horiz-adv-x="666" unicode="Y"/><glyph d="M669 700 414 226V0H256v222L-3 700h159l179-314 175 314M368 916l136-53-136-110-112 10z" horiz-adv-x="666" unicode="Ý"/><glyph d="M669 700 414 226V0H256v222L-3 700h159l179-314 175 314m2 59H390l-57 65-58-65H154l108 148h141z" horiz-adv-x="666" unicode="Ŷ"/><glyph d="M669 700 414 226V0H256v222L-3 700h159l179-314 175 314M310 828c0-21-6-38-19-51q-19.5-21-51-21c-21 0-37 7-50 21-13 13-20 30-20 51s7 39 20 52 29 20 50 20 38-7 51-20 19-31 19-52m187 0c0-21-7-38-20-51-13-14-30-21-50-21q-31.5 0-51 21c-13 13-20 30-20 51s7 38 20 52c13 13 30 20 51 20 20 0 37-7 50-20 13-14 20-31 20-52" horiz-adv-x="666" unicode="Ÿ"/><glyph d="M669 700 414 226V0H256v222L-3 700h159l179-314 175 314m-93 142c0-25-8-45-23-61-16-17-36-25-61-25-24 0-44 8-59 25-16 16-24 36-24 61q0 37.5 24 63c15 16 35 24 59 24 25 0 45-8 61-24 15-17 23-38 23-63" horiz-adv-x="666" unicode="Ẏ"/><glyph d="M669 700 414 226V0H256v222L-3 700h159l179-314 175 314m-92-856c0-25-8-46-23-62-16-16-36-24-61-24-24 0-44 8-59 25-16 16-24 36-24 61s8 46 24 62c15 16 35 24 59 24 25 0 45-8 61-24 15-16 23-37 23-62" horiz-adv-x="666" unicode="Ỵ"/><glyph d="M669 700 414 226V0H256v222L-3 700h159l179-314 175 314M298 916l104-153-112-10-128 110z" horiz-adv-x="666" unicode="Ỳ"/><glyph d="M669 700 414 226V0H256v222L-3 700h159l179-314 175 314m-65 177c0-22-7-45-22-68-15-24-36-46-61-67l-72 31c13 13 24 26 32 40 7 14 11 27 11 38 0 8-3 14-8 19s-12 7-20 7c-12 0-24-4-37-13l-42 68c35 23 72 35 111 35 33 0 59-8 79-24 19-16 29-38 29-66" horiz-adv-x="666" unicode="Ỷ"/><glyph d="M669 700 414 226V0H256v222L-3 700h159l179-314 175 314M167 856h332v-94H167z" horiz-adv-x="666" unicode="Ȳ"/><glyph d="M669 700 414 226V0H256v222L-3 700h159l179-314 175 314m-94 55c-15 0-29 3-42 8s-29 12-47 21q-12 7.5-24 12c-8 3-15 5-20 5-10 0-17-3-21-10s-6-18-7-33h-91c0 48 7 85 22 111 14 26 37 39 70 39 15 0 29-2 42-7s29-13 47-22c21-12 35-18 44-18 10 0 17 4 21 11s6 18 7 32h91c0-47-7-84-21-110-15-26-38-39-71-39" horiz-adv-x="666" unicode="Ỹ"/><glyph d="M44 700h591V594L244 132h397L640 0H31v107l392 461H44z" horiz-adv-x="672" unicode="Z"/><glyph d="M44 700h591V594L244 132h397L640 0H31v107l392 461H44m330 348 136-53-136-110-112 10z" horiz-adv-x="672" unicode="Ź"/><glyph d="M44 700h591V594L244 132h397L640 0H31v107l392 461H44m333 338h121L390 758H249L140 906h122l58-65z" horiz-adv-x="672" unicode="Ž"/><glyph d="M44 700h591V594L244 132h397L640 0H31v107l392 461H44m379 274c0-25-8-45-23-61-16-17-36-25-61-25-24 0-44 8-59 25-16 16-24 36-24 61q0 37.5 24 63c15 16 35 24 59 24 25 0 45-8 61-24 15-17 23-38 23-63" horiz-adv-x="672" unicode="Ż"/><glyph d="M44 700h591V594L244 132h397L640 0H31v107l392 461H44m375-724c0-25-8-46-23-62-16-16-36-24-61-24-24 0-44 8-59 25-16 16-24 36-24 61s8 46 24 62c15 16 35 24 59 24 25 0 45-8 61-24 15-16 23-37 23-62" horiz-adv-x="672" unicode="Ẓ"/><glyph d="M386 0v63c-18-23-41-40-70-52Q272.5-7 217-7C160-7 115 9 82 40s-50 71-50 121c0 51 18 90 54 119 35 28 86 42 151 43h148v10c0 29-9 51-28 67-19 15-47 23-84 23-50 0-103-16-160-47L65 482c43 21 83 37 120 47q55.5 15 123 15 108 0 168-51c39-34 59-81 60-142l1-351M385 184v48H264c-30 0-52-5-66-14-15-10-22-26-22-47s8-37 23-49c15-13 35-19 61-19 32 0 60 8 83 23s37 35 42 58" horiz-adv-x="596" unicode="a"/><glyph d="M386 0v63c-18-23-41-40-70-52Q272.5-7 217-7C160-7 115 9 82 40s-50 71-50 121c0 51 18 90 54 119 35 28 86 42 151 43h148v10c0 29-9 51-28 67-19 15-47 23-84 23-50 0-103-16-160-47L65 482c43 21 83 37 120 47q55.5 15 123 15 108 0 168-51c39-34 59-81 60-142l1-351M385 184v48H264c-30 0-52-5-66-14-15-10-22-26-22-47s8-37 23-49c15-13 35-19 61-19 32 0 60 8 83 23s37 35 42 58m-55 581 136-53-136-110-112 10z" horiz-adv-x="596" unicode="á"/><glyph d="M386 0v63c-18-23-41-40-70-52Q272.5-7 217-7C160-7 115 9 82 40s-50 71-50 121c0 51 18 90 54 119 35 28 86 42 151 43h148v10c0 29-9 51-28 67-19 15-47 23-84 23-50 0-103-16-160-47L65 482c43 21 83 37 120 47q55.5 15 123 15 108 0 168-51c39-34 59-81 60-142l1-351M385 184v48H264c-30 0-52-5-66-14-15-10-22-26-22-47s8-37 23-49c15-13 35-19 61-19 32 0 60 8 83 23s37 35 42 58m-89 513c16 0 29 6 40 17s17 25 18 43h98c-2-47-17-84-46-112s-65-42-110-42q-67.5 0-111 42c-29 28-44 65-45 112h98c1-18 7-32 18-43s24-17 40-17" horiz-adv-x="596" unicode="ă"/><glyph d="M386 0v63c-18-23-41-40-70-52Q272.5-7 217-7C160-7 115 9 82 40s-50 71-50 121c0 51 18 90 54 119 35 28 86 42 151 43h148v10c0 29-9 51-28 67-19 15-47 23-84 23-50 0-103-16-160-47L65 482c43 21 83 37 120 47q55.5 15 123 15 108 0 168-51c39-34 59-81 60-142l1-351M385 184v48H264c-30 0-52-5-66-14-15-10-22-26-22-47s8-37 23-49c15-13 35-19 61-19 32 0 60 8 83 23s37 35 42 58m-89 506c17 0 31 5 42 14s18 20 19 34h97c-2-41-17-74-46-99s-67-37-112-37c-46 0-83 12-112 37s-44 58-46 99h97c1-14 8-25 19-34s25-14 42-14m46 210 112-70-150-82-98 27z" horiz-adv-x="596" unicode="ắ"/><glyph d="M386 0v63c-18-23-41-40-70-52Q272.5-7 217-7C160-7 115 9 82 40s-50 71-50 121c0 51 18 90 54 119 35 28 86 42 151 43h148v10c0 29-9 51-28 67-19 15-47 23-84 23-50 0-103-16-160-47L65 482c43 21 83 37 120 47q55.5 15 123 15 108 0 168-51c39-34 59-81 60-142l1-351M385 184v48H264c-30 0-52-5-66-14-15-10-22-26-22-47s8-37 23-49c15-13 35-19 61-19 32 0 60 8 83 23s37 35 42 58m-17-340c0-25-8-46-23-62-16-16-36-24-61-24-24 0-44 8-59 25-16 16-24 36-24 61s8 46 24 62c15 16 35 24 59 24 25 0 45-8 61-24 15-16 23-37 23-62m-83 853c16 0 29 6 40 17s17 25 18 43h98c-2-47-17-84-46-112s-65-42-110-42q-67.5 0-111 42c-29 28-44 65-45 112h98c1-18 7-32 18-43s24-17 40-17" horiz-adv-x="596" unicode="ặ"/><glyph d="M386 0v63c-18-23-41-40-70-52Q272.5-7 217-7C160-7 115 9 82 40s-50 71-50 121c0 51 18 90 54 119 35 28 86 42 151 43h148v10c0 29-9 51-28 67-19 15-47 23-84 23-50 0-103-16-160-47L65 482c43 21 83 37 120 47q55.5 15 123 15 108 0 168-51c39-34 59-81 60-142l1-351M385 184v48H264c-30 0-52-5-66-14-15-10-22-26-22-47s8-37 23-49c15-13 35-19 61-19 32 0 60 8 83 23s37 35 42 58m-89 506c17 0 31 5 42 14s18 20 19 34h97c-2-41-17-74-46-99s-67-37-112-37c-46 0-83 12-112 37s-44 58-46 99h97c1-14 8-25 19-34s25-14 42-14m-58 210 135-125-97-27-151 82z" horiz-adv-x="596" unicode="ằ"/><glyph d="M386 0v63c-18-23-41-40-70-52Q272.5-7 217-7C160-7 115 9 82 40s-50 71-50 121c0 51 18 90 54 119 35 28 86 42 151 43h148v10c0 29-9 51-28 67-19 15-47 23-84 23-50 0-103-16-160-47L65 482c43 21 83 37 120 47q55.5 15 123 15 108 0 168-51c39-34 59-81 60-142l1-351M385 184v48H264c-30 0-52-5-66-14-15-10-22-26-22-47s8-37 23-49c15-13 35-19 61-19 32 0 60 8 83 23s37 35 42 58m-89 506c17 0 31 5 42 14s18 20 19 34h97c-2-41-17-74-46-99s-67-37-112-37c-46 0-83 12-112 37s-44 58-46 99h97c1-14 8-25 19-34s25-14 42-14m87 158c0-35-24-68-71-101l-66 26q36 25.5 36 48c0 6-2 11-6 14s-9 4-16 4c-11 0-21-3-30-10l-40 58c33 21 67 31 101 31 29 0 51-7 68-20 16-13 24-30 24-50" horiz-adv-x="596" unicode="ẳ"/><glyph d="M386 0v63c-18-23-41-40-70-52Q272.5-7 217-7C160-7 115 9 82 40s-50 71-50 121c0 51 18 90 54 119 35 28 86 42 151 43h148v10c0 29-9 51-28 67-19 15-47 23-84 23-50 0-103-16-160-47L65 482c43 21 83 37 120 47q55.5 15 123 15 108 0 168-51c39-34 59-81 60-142l1-351M385 184v48H264c-30 0-52-5-66-14-15-10-22-26-22-47s8-37 23-49c15-13 35-19 61-19 32 0 60 8 83 23s37 35 42 58m-92 506c17 0 31 5 42 14s18 20 19 34h97c-2-41-17-74-46-99s-67-37-112-37c-46 0-83 12-112 37s-44 58-46 99h97c1-14 8-25 19-34s25-14 42-14m82 89c-16 0-31 2-45 7s-30 11-49 20c-2 1-9 4-20 9-12 5-22 7-29 7-11 0-19-3-24-10s-7-17-7-30h-76c0 41 7 72 21 95q21 33 69 33c16 0 32-2 47-7s31-11 49-20c23-11 39-16 48-16 11 0 18 3 23 10s7 17 7 30h77c0-41-7-73-21-95-15-22-38-33-70-33" horiz-adv-x="596" unicode="ẵ"/><glyph d="M386 0v63c-18-23-41-40-70-52Q272.5-7 217-7C160-7 115 9 82 40s-50 71-50 121c0 51 18 90 54 119 35 28 86 42 151 43h148v10c0 29-9 51-28 67-19 15-47 23-84 23-50 0-103-16-160-47L65 482c43 21 83 37 120 47q55.5 15 123 15 108 0 168-51c39-34 59-81 60-142l1-351M385 184v48H264c-30 0-52-5-66-14-15-10-22-26-22-47s8-37 23-49c15-13 35-19 61-19 32 0 60 8 83 23s37 35 42 58m90 428H353l-57 65-58-65H117l108 148h141z" horiz-adv-x="596" unicode="â"/><glyph d="M386 0v63c-18-23-41-40-70-52Q272.5-7 217-7C160-7 115 9 82 40s-50 71-50 121c0 51 18 90 54 119 35 28 86 42 151 43h148v10c0 29-9 51-28 67-19 15-47 23-84 23-50 0-103-16-160-47L65 482c43 21 83 37 120 47q55.5 15 123 15 108 0 168-51c39-34 59-81 60-142l1-351M385 184v48H264c-30 0-52-5-66-14-15-10-22-26-22-47s8-37 23-49c15-13 35-19 61-19 32 0 60 8 83 23s37 35 42 58m109 418H360l-64 57-65-57H97l111 115h174m-41 182 112-70-150-82-98 27z" horiz-adv-x="596" unicode="ấ"/><glyph d="M386 0v63c-18-23-41-40-70-52Q272.5-7 217-7C160-7 115 9 82 40s-50 71-50 121c0 51 18 90 54 119 35 28 86 42 151 43h148v10c0 29-9 51-28 67-19 15-47 23-84 23-50 0-103-16-160-47L65 482c43 21 83 37 120 47q55.5 15 123 15 108 0 168-51c39-34 59-81 60-142l1-351M385 184v48H264c-30 0-52-5-66-14-15-10-22-26-22-47s8-37 23-49c15-13 35-19 61-19 32 0 60 8 83 23s37 35 42 58m-17-340c0-25-8-46-23-62-16-16-36-24-61-24-24 0-44 8-59 25-16 16-24 36-24 61s8 46 24 62c15 16 35 24 59 24 25 0 45-8 61-24 15-16 23-37 23-62m96 768H342l-57 65-58-65H106l108 148h141z" horiz-adv-x="596" unicode="ậ"/><glyph d="M386 0v63c-18-23-41-40-70-52Q272.5-7 217-7C160-7 115 9 82 40s-50 71-50 121c0 51 18 90 54 119 35 28 86 42 151 43h148v10c0 29-9 51-28 67-19 15-47 23-84 23-50 0-103-16-160-47L65 482c43 21 83 37 120 47q55.5 15 123 15 108 0 168-51c39-34 59-81 60-142l1-351M385 184v48H264c-30 0-52-5-66-14-15-10-22-26-22-47s8-37 23-49c15-13 35-19 61-19 32 0 60 8 83 23s37 35 42 58m109 418H360l-64 57-65-57H97l111 115h174M238 899l135-125-97-27-151 82z" horiz-adv-x="596" unicode="ầ"/><glyph d="M386 0v63c-18-23-41-40-70-52Q272.5-7 217-7C160-7 115 9 82 40s-50 71-50 121c0 51 18 90 54 119 35 28 86 42 151 43h148v10c0 29-9 51-28 67-19 15-47 23-84 23-50 0-103-16-160-47L65 482c43 21 83 37 120 47q55.5 15 123 15 108 0 168-51c39-34 59-81 60-142l1-351M385 184v48H264c-30 0-52-5-66-14-15-10-22-26-22-47s8-37 23-49c15-13 35-19 61-19 32 0 60 8 83 23s37 35 42 58m109 418H360l-64 57-65-57H97l111 115h174m0 130c0-35-24-68-71-101l-66 26q36 25.5 36 48c0 6-2 11-6 14s-9 4-16 4c-11 0-21-3-30-10l-40 58c33 21 67 31 101 31 29 0 51-7 68-20 16-13 24-30 24-50" horiz-adv-x="596" unicode="ẩ"/><glyph d="M386 0v63c-18-23-41-40-70-52Q272.5-7 217-7C160-7 115 9 82 40s-50 71-50 121c0 51 18 90 54 119 35 28 86 42 151 43h148v10c0 29-9 51-28 67-19 15-47 23-84 23-50 0-103-16-160-47L65 482c43 21 83 37 120 47q55.5 15 123 15 108 0 168-51c39-34 59-81 60-142l1-351M385 184v48H264c-30 0-52-5-66-14-15-10-22-26-22-47s8-37 23-49c15-13 35-19 61-19 32 0 60 8 83 23s37 35 42 58m109 418H360l-64 57-65-57H97l111 115h174m-7 34c-16 0-31 2-45 7s-30 11-49 20c-2 1-9 4-20 9-12 5-22 7-29 7-11 0-19-3-24-10s-7-17-7-30h-76c0 41 7 72 21 95q21 33 69 33c16 0 32-2 47-7s31-11 49-20c23-11 39-16 48-16 11 0 18 3 23 10s7 17 7 30h77c0-41-7-73-21-95-15-22-38-33-70-33" horiz-adv-x="596" unicode="ẫ"/><glyph d="M386 0v63c-18-23-41-40-70-52Q272.5-7 217-7C160-7 115 9 82 40s-50 71-50 121c0 51 18 90 54 119 35 28 86 42 151 43h148v10c0 29-9 51-28 67-19 15-47 23-84 23-50 0-103-16-160-47L65 482c43 21 83 37 120 47q55.5 15 123 15 108 0 168-51c39-34 59-81 60-142l1-351M385 184v48H264c-30 0-52-5-66-14-15-10-22-26-22-47s8-37 23-49c15-13 35-19 61-19 32 0 60 8 83 23s37 35 42 58M192 769l79-157-109-10-91 120m305 47 80-157-109-10-91 120z" horiz-adv-x="596" unicode="ȁ"/><glyph d="M386 0v63c-18-23-41-40-70-52Q272.5-7 217-7C160-7 115 9 82 40s-50 71-50 121c0 51 18 90 54 119 35 28 86 42 151 43h148v10c0 29-9 51-28 67-19 15-47 23-84 23-50 0-103-16-160-47L65 482c43 21 83 37 120 47q55.5 15 123 15 108 0 168-51c39-34 59-81 60-142l1-351M385 184v48H264c-30 0-52-5-66-14-15-10-22-26-22-47s8-37 23-49c15-13 35-19 61-19 32 0 60 8 83 23s37 35 42 58M273 686c0-21-7-38-20-51s-30-20-50-20c-21 0-37 7-50 20s-20 30-20 51 7 39 20 52 29 20 50 20c20 0 37-7 50-20 13-14 20-31 20-52m186 0c0-21-6-38-19-51s-30-20-51-20c-20 0-37 7-50 20s-20 30-20 51 7 38 20 52c13 13 30 20 50 20 21 0 38-7 51-20s19-31 19-52" horiz-adv-x="596" unicode="ä"/><glyph d="M386 0v63c-18-23-41-40-70-52Q272.5-7 217-7C160-7 115 9 82 40s-50 71-50 121c0 51 18 90 54 119 35 28 86 42 151 43h148v10c0 29-9 51-28 67-19 15-47 23-84 23-50 0-103-16-160-47L65 482c43 21 83 37 120 47q55.5 15 123 15 108 0 168-51c39-34 59-81 60-142l1-351M385 184v48H264c-30 0-52-5-66-14-15-10-22-26-22-47s8-37 23-49c15-13 35-19 61-19 32 0 60 8 83 23s37 35 42 58m-17-340c0-25-8-46-23-62-16-16-36-24-61-24-24 0-44 8-59 25-16 16-24 36-24 61s8 46 24 62c15 16 35 24 59 24 25 0 45-8 61-24 15-16 23-37 23-62" horiz-adv-x="596" unicode="ạ"/><glyph d="M386 0v63c-18-23-41-40-70-52Q272.5-7 217-7C160-7 115 9 82 40s-50 71-50 121c0 51 18 90 54 119 35 28 86 42 151 43h148v10c0 29-9 51-28 67-19 15-47 23-84 23-50 0-103-16-160-47L65 482c43 21 83 37 120 47q55.5 15 123 15 108 0 168-51c39-34 59-81 60-142l1-351M385 184v48H264c-30 0-52-5-66-14-15-10-22-26-22-47s8-37 23-49c15-13 35-19 61-19 32 0 60 8 83 23s37 35 42 58M261 765l104-153-112-10-128 110z" horiz-adv-x="596" unicode="à"/><glyph d="M386 0v63c-18-23-41-40-70-52Q272.5-7 217-7C160-7 115 9 82 40s-50 71-50 121c0 51 18 90 54 119 35 28 86 42 151 43h148v10c0 29-9 51-28 67-19 15-47 23-84 23-50 0-103-16-160-47L65 482c43 21 83 37 120 47q55.5 15 123 15 108 0 168-51c39-34 59-81 60-142l1-351M385 184v48H264c-30 0-52-5-66-14-15-10-22-26-22-47s8-37 23-49c15-13 35-19 61-19 32 0 60 8 83 23s37 35 42 58m23 532c0-22-7-45-22-68-15-24-36-46-61-67l-72 31c13 13 24 26 32 40 7 14 11 27 11 38 0 8-3 14-8 19s-12 7-20 7c-12 0-24-4-37-13l-42 68c35 23 72 35 111 35 33 0 59-8 79-24 19-16 29-38 29-66" horiz-adv-x="596" unicode="ả"/><glyph d="M386 0v63c-18-23-41-40-70-52Q272.5-7 217-7C160-7 115 9 82 40s-50 71-50 121c0 51 18 90 54 119 35 28 86 42 151 43h148v10c0 29-9 51-28 67-19 15-47 23-84 23-50 0-103-16-160-47L65 482c43 21 83 37 120 47q55.5 15 123 15 108 0 168-51c39-34 59-81 60-142l1-351M385 184v48H264c-30 0-52-5-66-14-15-10-22-26-22-47s8-37 23-49c15-13 35-19 61-19 32 0 60 8 83 23s37 35 42 58M140 603c1 47 16 84 45 112q43.5 42 111 42c45 0 81-14 110-42s44-65 46-112h-98c-1 17-7 32-18 43s-24 17-40 17-29-6-40-17-17-26-18-43z" horiz-adv-x="596" unicode="ȃ"/><glyph d="M386 0v63c-18-23-41-40-70-52Q272.5-7 217-7C160-7 115 9 82 40s-50 71-50 121c0 51 18 90 54 119 35 28 86 42 151 43h148v10c0 29-9 51-28 67-19 15-47 23-84 23-50 0-103-16-160-47L65 482c43 21 83 37 120 47q55.5 15 123 15 108 0 168-51c39-34 59-81 60-142l1-351M385 184v48H264c-30 0-52-5-66-14-15-10-22-26-22-47s8-37 23-49c15-13 35-19 61-19 32 0 60 8 83 23s37 35 42 58M144 735h303v-94H144z" horiz-adv-x="596" unicode="ā"/><glyph d="m490-119 29-88q-48-21-93-21c-34 0-61 9-80 27-20 18-30 43-30 74 0 48 23 93 70 135v55c-18-23-41-40-70-52Q272.5-7 217-7C160-7 115 9 82 40s-50 71-50 121c0 51 18 90 54 119 35 28 86 42 151 43h148v10c0 29-9 51-28 67-19 15-47 23-84 23-50 0-103-16-160-47L65 482c43 21 83 37 120 47q55.5 15 123 15 108 0 168-51c39-34 59-81 60-142l1-351h-20c-28-20-48-38-61-53-13-16-20-32-20-47q0-27 24-27c11 0 21 3 30 8M385 184v48H264c-30 0-52-5-66-14-15-10-22-26-22-47s8-37 23-49c15-13 35-19 61-19 32 0 60 8 83 23s37 35 42 58" horiz-adv-x="596" unicode="ą"/><glyph d="M386 0v63c-18-23-41-40-70-52Q272.5-7 217-7C160-7 115 9 82 40s-50 71-50 121c0 51 18 90 54 119 35 28 86 42 151 43h148v10c0 29-9 51-28 67-19 15-47 23-84 23-50 0-103-16-160-47L65 482c43 21 83 37 120 47q55.5 15 123 15 108 0 168-51c39-34 59-81 60-142l1-351M385 184v48H264c-30 0-52-5-66-14-15-10-22-26-22-47s8-37 23-49c15-13 35-19 61-19 32 0 60 8 83 23s37 35 42 58m27 511c0-32-11-59-34-82s-50-34-82-34-59 11-82 34-34 50-34 82c0 31 11 58 34 81s50 34 82 34 59-11 82-34 34-50 34-81m-163 0c0-13 5-23 14-32s20-14 33-14 25 5 34 14 13 19 13 32-4 23-13 32-21 13-34 13-24-4-33-13-14-19-14-32" horiz-adv-x="596" unicode="å"/><glyph d="M386 0v63c-18-23-41-40-70-52Q272.5-7 217-7C160-7 115 9 82 40s-50 71-50 121c0 51 18 90 54 119 35 28 86 42 151 43h148v10c0 29-9 51-28 67-19 15-47 23-84 23-50 0-103-16-160-47L65 482c43 21 83 37 120 47q55.5 15 123 15 108 0 168-51c39-34 59-81 60-142l1-351M385 184v48H264c-30 0-52-5-66-14-15-10-22-26-22-47s8-37 23-49c15-13 35-19 61-19 32 0 60 8 83 23s37 35 42 58m27 511c0-32-11-59-34-82s-50-34-82-34-59 11-82 34-34 50-34 82c0 31 11 58 34 81s50 34 82 34 59-11 82-34 34-50 34-81m-163 0c0-13 5-23 14-32s20-14 33-14 25 5 34 14 13 19 13 32-4 23-13 32-21 13-34 13-24-4-33-13-14-19-14-32m93 290 112-70-150-82-98 27z" horiz-adv-x="596" unicode="ǻ"/><glyph d="M386 0v63c-18-23-41-40-70-52Q272.5-7 217-7C160-7 115 9 82 40s-50 71-50 121c0 51 18 90 54 119 35 28 86 42 151 43h148v10c0 29-9 51-28 67-19 15-47 23-84 23-50 0-103-16-160-47L65 482c43 21 83 37 120 47q55.5 15 123 15 108 0 168-51c39-34 59-81 60-142l1-351M385 184v48H264c-30 0-52-5-66-14-15-10-22-26-22-47s8-37 23-49c15-13 35-19 61-19 32 0 60 8 83 23s37 35 42 58m-6 416c-15 0-29 3-42 8s-29 12-47 21q-12 7.5-24 12c-8 3-15 5-20 5-10 0-17-3-21-10s-6-18-7-33h-91c0 48 7 85 22 111 14 26 37 39 70 39 15 0 29-2 42-7s29-13 47-22c21-12 35-18 44-18 10 0 17 4 21 11s6 18 7 32h91c0-47-7-84-21-110-15-26-38-39-71-39" horiz-adv-x="596" unicode="ã"/><glyph d="M684 114c26 0 51 5 74 15s44 24 63 43l81-84c-28-31-61-54-100-70S719-6 672-6c-51 0-96 10-134 31-39 20-69 49-90 86-21-39-51-68-88-88Q303-7 225-7C166-7 120 8 85 38s-53 70-53 120 18 88 53 115 86 40 153 41h149v23c-1 27-12 49-31 64s-47 22-82 22c-25 0-53-4-83-12s-60-20-90-35L65 484q129 60 243 60c41 0 77-6 108-17s56-28 75-49c45 43 103 65 176 65 57 0 107-13 150-38q63-37.5 96-108c21-47 31-101 28-163H544v-11c3-31 18-56 45-77s59-32 95-32m-15 321c-34 0-62-11-85-34s-37-52-42-89h246c-1 36-12 66-34 89s-50 34-85 34M176 171c0-23 8-41 23-54s36-20 62-20c57 0 100 25 127 74l-1 66H269c-30 0-53-6-69-17s-24-28-24-49" horiz-adv-x="969" unicode="æ"/><glyph d="M684 114c26 0 51 5 74 15s44 24 63 43l81-84c-28-31-61-54-100-70S719-6 672-6c-51 0-96 10-134 31-39 20-69 49-90 86-21-39-51-68-88-88Q303-7 225-7C166-7 120 8 85 38s-53 70-53 120 18 88 53 115 86 40 153 41h149v23c-1 27-12 49-31 64s-47 22-82 22c-25 0-53-4-83-12s-60-20-90-35L65 484q129 60 243 60c41 0 77-6 108-17s56-28 75-49c45 43 103 65 176 65 57 0 107-13 150-38q63-37.5 96-108c21-47 31-101 28-163H544v-11c3-31 18-56 45-77s59-32 95-32m-15 321c-34 0-62-11-85-34s-37-52-42-89h246c-1 36-12 66-34 89s-50 34-85 34M176 171c0-23 8-41 23-54s36-20 62-20c57 0 100 25 127 74l-1 66H269c-30 0-53-6-69-17s-24-28-24-49m344 594 136-53-136-110-112 10z" horiz-adv-x="969" unicode="ǽ"/><glyph d="M656 266c0-54-10-101-31-142q-31.5-61.5-87-96C500 5 456-6 406-6c-37 0-70 7-99 22-29 14-54 35-74 62V0H79v742h154V459c19 27 44 48 73 63 29 14 61 21 97 21 50 0 94-11 133-34 38-23 68-56 89-98s31-90 31-145m-156 5c0 43-12 79-37 107-25 27-57 41-96 41s-71-14-96-41c-25-28-38-64-38-107 0-45 13-81 38-108s57-41 96-41q58.5 0 96 42c25 27 37 63 37 107" horiz-adv-x="684" unicode="b"/><glyph d="M313 412c-39 0-70-13-94-39-25-27-37-62-37-105q0-64.5 36-105c24-27 55-41 92-41 56 0 98 21 125 63l106-72c-23-38-54-67-95-88S357-6 302-6C248-6 200 5 159 28q-61.5 34.5-96 96c-23 41-35 89-35 143 0 55 12 103 35 145 23 41 55 74 97 97 41 23 89 34 144 34 51 0 97-10 137-29q60-30 96-84l-104-75q-46.5 57-120 57" horiz-adv-x="563" unicode="c"/><glyph d="M313 412c-39 0-70-13-94-39-25-27-37-62-37-105q0-64.5 36-105c24-27 55-41 92-41 56 0 98 21 125 63l106-72c-23-38-54-67-95-88S357-6 302-6C248-6 200 5 159 28q-61.5 34.5-96 96c-23 41-35 89-35 143 0 55 12 103 35 145 23 41 55 74 97 97 41 23 89 34 144 34 51 0 97-10 137-29q60-30 96-84l-104-75q-46.5 57-120 57m23 353 136-53-136-110-112 10z" horiz-adv-x="563" unicode="ć"/><glyph d="M313 412c-39 0-70-13-94-39-25-27-37-62-37-105q0-64.5 36-105c24-27 55-41 92-41 56 0 98 21 125 63l106-72c-23-38-54-67-95-88S357-6 302-6C248-6 200 5 159 28q-61.5 34.5-96 96c-23 41-35 89-35 143 0 55 12 103 35 145 23 41 55 74 97 97 41 23 89 34 144 34 51 0 97-10 137-29q60-30 96-84l-104-75q-46.5 57-120 57m47 347h121L373 611H232L123 759h122l58-65z" horiz-adv-x="563" unicode="č"/><glyph d="m344-4-19-50c28-6 49-16 62-30 13-15 20-32 20-51 0-31-12-54-35-70s-53-24-88-24q-51 0-105 21l26 75c18-7 36-10 54-10 12 0 22 2 30 7 7 4 11 9 11 15 0 8-5 14-14 19-9 4-22 6-38 6h-27l30 94C183 8 129 37 89 86c-41 49-61 109-61 181 0 55 12 103 35 145 23 41 55 74 97 97 41 23 89 34 144 34 51 0 97-10 137-29q60-30 96-84l-104-75q-46.5 57-120 57c-39 0-70-13-94-39-25-27-37-62-37-105q0-64.5 36-105c24-27 55-41 92-41 56 0 98 21 125 63l106-72c-19-33-46-59-80-79-34-21-73-33-117-38" horiz-adv-x="563" unicode="ç"/><glyph d="M450 712 314 602l-112 10 112 153M344-4l-19-50c28-6 49-16 62-30 13-15 20-32 20-51 0-31-12-54-35-70s-53-24-88-24q-51 0-105 21l26 75c18-7 36-10 54-10 12 0 22 2 30 7 7 4 11 9 11 15 0 8-5 14-14 19-9 4-22 6-38 6h-27l30 94C183 8 129 37 89 86c-41 49-61 109-61 181 0 55 12 103 35 145 23 41 55 74 97 97 41 23 89 34 144 34 51 0 97-10 137-29q60-30 96-84l-104-75q-46.5 57-120 57c-39 0-70-13-94-39-25-27-37-62-37-105q0-64.5 36-105c24-27 55-41 92-41 56 0 98 21 125 63l106-72c-19-33-46-59-80-79-34-21-73-33-117-38" horiz-adv-x="563" unicode="ḉ"/><glyph d="M313 412c-39 0-70-13-94-39-25-27-37-62-37-105q0-64.5 36-105c24-27 55-41 92-41 56 0 98 21 125 63l106-72c-23-38-54-67-95-88S357-6 302-6C248-6 200 5 159 28q-61.5 34.5-96 96c-23 41-35 89-35 143 0 55 12 103 35 145 23 41 55 74 97 97 41 23 89 34 144 34 51 0 97-10 137-29q60-30 96-84l-104-75q-46.5 57-120 57m168 200H359l-57 65-58-65H123l108 148h141z" horiz-adv-x="563" unicode="ĉ"/><glyph d="M313 412c-39 0-70-13-94-39-25-27-37-62-37-105q0-64.5 36-105c24-27 55-41 92-41 56 0 98 21 125 63l106-72c-23-38-54-67-95-88S357-6 302-6C248-6 200 5 159 28q-61.5 34.5-96 96c-23 41-35 89-35 143 0 55 12 103 35 145 23 41 55 74 97 97 41 23 89 34 144 34 51 0 97-10 137-29q60-30 96-84l-104-75q-46.5 57-120 57m72 279c0-25-8-46-23-62-16-16-36-24-61-24-24 0-44 8-59 25-16 16-24 36-24 61s8 46 24 62c15 16 35 24 59 24 25 0 45-8 61-24 15-16 23-37 23-62" horiz-adv-x="563" unicode="ċ"/><glyph d="M605 742V0H452v79q-28.5-42-72-63C351 1 319-6 282-6c-51 0-95 12-133 35-39 23-68 55-89 97s-32 90-32 145c0 54 10 102 31 143s50 73 88 96 82 34 131 34c76 0 134-28 174-85v283m0-475c0 44-12 80-37 108-25 27-58 41-97 41-40 0-72-14-97-41q-37.5-42-39-108c1-44 14-80 39-107 25-28 57-42 97-42 39 0 72 14 97 42 25 27 37 63 37 107" horiz-adv-x="685" unicode="d"/><glyph d="M572 279c0-57-12-108-35-151-24-43-58-77-101-100C392 5 341-7 283-7c-51 0-96 10-135 29q-58.5 28.5-90 81c-21 35-32 75-32 122 0 67 21 120 62 160q61.5 60 165 60c35 0 67-6 98-18q45-18 69-48c-4 32-16 64-36 95s-46 61-79 89l-177-81-32 66 143 66c-40 26-83 49-130 68l103 67q79.5-33 144-81l140 64 32-66-110-50c49-47 87-100 114-158 27-59 40-118 40-179m-164-48c0 32-11 58-32 78-21 19-50 29-86 29-35 0-64-9-85-28s-32-45-32-77c0-33 11-59 32-78 21-20 50-30 85-30 36 0 65 10 86 29s32 45 32 77" horiz-adv-x="600" unicode="ð"/><glyph d="M605 742V0H452v79q-28.5-42-72-63C351 1 319-6 282-6c-51 0-95 12-133 35-39 23-68 55-89 97s-32 90-32 145c0 54 10 102 31 143s50 73 88 96 82 34 131 34c76 0 134-28 174-85v283m0-475c0 44-12 80-37 108-25 27-58 41-97 41-40 0-72-14-97-41q-37.5-42-39-108c1-44 14-80 39-107 25-28 57-42 97-42 39 0 72 14 97 42 25 27 37 63 37 107m235 475h125l-30-212h-95z" horiz-adv-x="788" unicode="ď"/><glyph d="M672 581h-67V0H452v80c-20-27-45-48-74-63S316-6 280-6c-49 0-93 11-131 33-39 22-68 53-89 93-21 39-32 85-32 137 0 51 10 96 31 135s50 69 88 90c37 21 80 32 129 32 37 0 70-7 101-22 30-15 55-37 75-65v154H267v80h185v81h153v-81h67M452 252c0 40-12 73-37 98s-58 37-97 37c-40 0-73-12-98-37s-38-58-38-98c0-39 13-71 38-96s58-38 98-38c39 0 72 13 97 38s37 57 37 96" horiz-adv-x="684" unicode="đ"/><glyph d="M605 742V0H452v79q-28.5-42-72-63C351 1 319-6 282-6c-51 0-95 12-133 35-39 23-68 55-89 97s-32 90-32 145c0 54 10 102 31 143s50 73 88 96 82 34 131 34c76 0 134-28 174-85v283m0-475c0 44-12 80-37 108-25 27-58 41-97 41-40 0-72-14-97-41q-37.5-42-39-108c1-44 14-80 39-107 25-28 57-42 97-42 39 0 72 14 97 42 25 27 37 63 37 107m-13-423c0-25-8-46-23-62-16-16-36-24-61-24-24 0-44 8-59 25-16 16-24 36-24 61s8 46 24 62c15 16 35 24 59 24 25 0 45-8 61-24 15-16 23-37 23-62" horiz-adv-x="685" unicode="ḍ"/><glyph d="M605 742V0H452v79q-28.5-42-72-63C351 1 319-6 282-6c-51 0-95 12-133 35-39 23-68 55-89 97s-32 90-32 145c0 54 10 102 31 143s50 73 88 96 82 34 131 34c76 0 134-28 174-85v283m0-475c0 44-12 80-37 108-25 27-58 41-97 41-40 0-72-14-97-41q-37.5-42-39-108c1-44 14-80 39-107 25-28 57-42 97-42 39 0 72 14 97 42 25 27 37 63 37 107M204-78h303v-94H204z" horiz-adv-x="685" unicode="ḏ"/><glyph d="M605 742V0H452v79q-28.5-42-72-63C351 1 319-6 282-6c-51 0-95 12-133 35-39 23-68 55-89 97s-32 90-32 145c0 54 10 102 31 143s50 73 88 96 82 34 131 34c76 0 134-28 174-85v283m0-475c0 44-12 80-37 108-25 27-58 41-97 41-40 0-72-14-97-41q-37.5-42-39-108c1-44 14-80 39-107 25-28 57-42 97-42 39 0 72 14 97 42 25 27 37 63 37 107m281 270h459v-97L915 121h286V-1L723 0v97l277 319-267 1m287 342h121l-108-148H892L783 759h122l58-65z" horiz-adv-x="1233" unicode="ǆ"/><glyph d="M570 259c0-16 0-28-1-37H183c9-34 25-60 50-79s54-29 89-29c25 0 50 5 73 15q34.5 13.5 63 42l81-82c-27-31-60-54-99-70C401 2 357-6 309-6 252-6 203 5 161 28c-43 23-75 55-98 96s-35 89-35 143c0 55 12 103 35 145 23 41 56 74 98 97s90 34 144 34q130.5 0 198-75c45-50 67-120 67-209m-145 54c-1 35-13 64-34 85s-50 32-85 32c-33 0-61-10-83-31-23-21-37-50-43-86z" horiz-adv-x="597" unicode="e"/><glyph d="M570 259c0-16 0-28-1-37H183c9-34 25-60 50-79s54-29 89-29c25 0 50 5 73 15q34.5 13.5 63 42l81-82c-27-31-60-54-99-70C401 2 357-6 309-6 252-6 203 5 161 28c-43 23-75 55-98 96s-35 89-35 143c0 55 12 103 35 145 23 41 56 74 98 97s90 34 144 34q130.5 0 198-75c45-50 67-120 67-209m-145 54c-1 35-13 64-34 85s-50 32-85 32c-33 0-61-10-83-31-23-21-37-50-43-86m154 451 136-53-136-110-112 10z" horiz-adv-x="597" unicode="é"/><glyph d="M570 259c0-16 0-28-1-37H183c9-34 25-60 50-79s54-29 89-29c25 0 50 5 73 15q34.5 13.5 63 42l81-82c-27-31-60-54-99-70C401 2 357-6 309-6 252-6 203 5 161 28c-43 23-75 55-98 96s-35 89-35 143c0 55 12 103 35 145 23 41 56 74 98 97s90 34 144 34q130.5 0 198-75c45-50 67-120 67-209m-145 54c-1 35-13 64-34 85s-50 32-85 32c-33 0-61-10-83-31-23-21-37-50-43-86m120 383c16 0 29 6 40 17s17 25 18 43h98c-2-47-17-84-46-112s-65-42-110-42q-67.5 0-111 42c-29 28-44 65-45 112h98c1-18 7-32 18-43s24-17 40-17" horiz-adv-x="597" unicode="ĕ"/><glyph d="M570 259c0-16 0-28-1-37H183c9-34 25-60 50-79s54-29 89-29c25 0 50 5 73 15q34.5 13.5 63 42l81-82c-27-31-60-54-99-70C401 2 357-6 309-6 252-6 203 5 161 28c-43 23-75 55-98 96s-35 89-35 143c0 55 12 103 35 145 23 41 56 74 98 97s90 34 144 34q130.5 0 198-75c45-50 67-120 67-209m-145 54c-1 35-13 64-34 85s-50 32-85 32c-33 0-61-10-83-31-23-21-37-50-43-86m178 445h121L371 610H230L121 758h122l58-65z" horiz-adv-x="597" unicode="ě"/><glyph d="M137 757h98c1-18 7-32 18-43s24-17 40-17 29 6 40 17 17 25 18 43h98c-2-47-17-84-46-112s-65-42-110-42q-67.5 0-111 42c-29 28-44 65-45 112m433-498c0-16 0-28-1-37H183c9-34 25-60 50-79s54-29 89-29c25 0 50 5 73 15q34.5 13.5 63 42l81-82C493 38 432 7 357-3l-19-51c28-6 49-16 62-30 13-15 20-32 20-51 0-31-12-54-35-70s-53-24-88-24q-51 0-105 21l26 75c18-7 36-10 54-10 12 0 22 2 30 7 7 4 11 9 11 15 0 8-5 14-14 19-9 4-22 6-38 6h-27l30 93C191 6 134 34 92 83c-43 49-64 110-64 184 0 55 12 103 35 145 23 41 56 74 98 97s90 34 144 34q130.5 0 198-75c45-50 67-120 67-209m-145 54c-1 35-13 64-34 85s-50 32-85 32c-33 0-61-10-83-31-23-21-37-50-43-86z" horiz-adv-x="597" unicode="ḝ"/><glyph d="M570 259c0-16 0-28-1-37H183c9-34 25-60 50-79s54-29 89-29c25 0 50 5 73 15q34.5 13.5 63 42l81-82c-27-31-60-54-99-70C401 2 357-6 309-6 252-6 203 5 161 28c-43 23-75 55-98 96s-35 89-35 143c0 55 12 103 35 145 23 41 56 74 98 97s90 34 144 34q130.5 0 198-75c45-50 67-120 67-209m-145 54c-1 35-13 64-34 85s-50 32-85 32c-33 0-61-10-83-31-23-21-37-50-43-86m299 298H357l-57 65-58-65H121l108 148h141z" horiz-adv-x="597" unicode="ê"/><glyph d="M570 259c0-16 0-28-1-37H183c9-34 25-60 50-79s54-29 89-29c25 0 50 5 73 15q34.5 13.5 63 42l81-82c-27-31-60-54-99-70C401 2 357-6 309-6 252-6 203 5 161 28c-43 23-75 55-98 96s-35 89-35 143c0 55 12 103 35 145 23 41 56 74 98 97s90 34 144 34q130.5 0 198-75c45-50 67-120 67-209m-145 54c-1 35-13 64-34 85s-50 32-85 32c-33 0-61-10-83-31-23-21-37-50-43-86m318 288H364l-64 57-65-57H101l111 115h174m-41 182 112-70-150-82-98 27z" horiz-adv-x="597" unicode="ế"/><glyph d="M570 259c0-16 0-28-1-37H183c9-34 25-60 50-79s54-29 89-29c25 0 50 5 73 15q34.5 13.5 63 42l81-82c-27-31-60-54-99-70C401 2 357-6 309-6 252-6 203 5 161 28c-43 23-75 55-98 96s-35 89-35 143c0 55 12 103 35 145 23 41 56 74 98 97s90 34 144 34q130.5 0 198-75c45-50 67-120 67-209m-145 54c-1 35-13 64-34 85s-50 32-85 32c-33 0-61-10-83-31-23-21-37-50-43-86m206-469c0-25-8-46-23-62-16-16-36-24-61-24-24 0-44 8-59 25-16 16-24 36-24 61s8 46 24 62c15 16 35 24 59 24 25 0 45-8 61-24 15-16 23-37 23-62m96 768H360l-57 65-58-65H124l108 148h141z" horiz-adv-x="597" unicode="ệ"/><glyph d="M570 259c0-16 0-28-1-37H183c9-34 25-60 50-79s54-29 89-29c25 0 50 5 73 15q34.5 13.5 63 42l81-82c-27-31-60-54-99-70C401 2 357-6 309-6 252-6 203 5 161 28c-43 23-75 55-98 96s-35 89-35 143c0 55 12 103 35 145 23 41 56 74 98 97s90 34 144 34q130.5 0 198-75c45-50 67-120 67-209m-145 54c-1 35-13 64-34 85s-50 32-85 32c-33 0-61-10-83-31-23-21-37-50-43-86m318 288H364l-64 57-65-57H101l111 115h174M242 898l135-125-97-27-151 82z" horiz-adv-x="597" unicode="ề"/><glyph d="M570 259c0-16 0-28-1-37H183c9-34 25-60 50-79s54-29 89-29c25 0 50 5 73 15q34.5 13.5 63 42l81-82c-27-31-60-54-99-70C401 2 357-6 309-6 252-6 203 5 161 28c-43 23-75 55-98 96s-35 89-35 143c0 55 12 103 35 145 23 41 56 74 98 97s90 34 144 34q130.5 0 198-75c45-50 67-120 67-209m-145 54c-1 35-13 64-34 85s-50 32-85 32c-33 0-61-10-83-31-23-21-37-50-43-86m318 288H364l-64 57-65-57H101l111 115h174m0 130c0-35-24-68-71-101l-66 26q36 25.5 36 48c0 6-2 11-6 14s-9 4-16 4c-11 0-21-3-30-10l-40 58c33 21 67 31 101 31 29 0 51-7 68-20 16-13 24-30 24-50" horiz-adv-x="597" unicode="ể"/><glyph d="M570 259c0-16 0-28-1-37H183c9-34 25-60 50-79s54-29 89-29c25 0 50 5 73 15q34.5 13.5 63 42l81-82c-27-31-60-54-99-70C401 2 357-6 309-6 252-6 203 5 161 28c-43 23-75 55-98 96s-35 89-35 143c0 55 12 103 35 145 23 41 56 74 98 97s90 34 144 34q130.5 0 198-75c45-50 67-120 67-209m-145 54c-1 35-13 64-34 85s-50 32-85 32c-33 0-61-10-83-31-23-21-37-50-43-86m318 288H364l-64 57-65-57H101l111 115h174m-7 34c-16 0-31 2-45 7s-30 11-49 20c-2 1-9 4-20 9-12 5-22 7-29 7-11 0-19-3-24-10s-7-17-7-30h-76c0 41 7 72 21 95q21 33 69 33c16 0 32-2 47-7s31-11 49-20c23-11 39-16 48-16 11 0 18 3 23 10s7 17 7 30h77c0-41-7-73-21-95-15-22-38-33-70-33" horiz-adv-x="597" unicode="ễ"/><glyph d="M570 259c0-16 0-28-1-37H183c9-34 25-60 50-79s54-29 89-29c25 0 50 5 73 15q34.5 13.5 63 42l81-82c-27-31-60-54-99-70C401 2 357-6 309-6 252-6 203 5 161 28c-43 23-75 55-98 96s-35 89-35 143c0 55 12 103 35 145 23 41 56 74 98 97s90 34 144 34q130.5 0 198-75c45-50 67-120 67-209m-145 54c-1 35-13 64-34 85s-50 32-85 32c-33 0-61-10-83-31-23-21-37-50-43-86m16 455 79-157-109-10-91 120m305 47 80-157-109-10-91 120z" horiz-adv-x="597" unicode="ȅ"/><glyph d="M570 259c0-16 0-28-1-37H183c9-34 25-60 50-79s54-29 89-29c25 0 50 5 73 15q34.5 13.5 63 42l81-82c-27-31-60-54-99-70C401 2 357-6 309-6 252-6 203 5 161 28c-43 23-75 55-98 96s-35 89-35 143c0 55 12 103 35 145 23 41 56 74 98 97s90 34 144 34q130.5 0 198-75c45-50 67-120 67-209m-145 54c-1 35-13 64-34 85s-50 32-85 32c-33 0-61-10-83-31-23-21-37-50-43-86m97 372c0-21-7-38-20-51s-30-20-50-20c-21 0-37 7-50 20s-20 30-20 51 7 39 20 52 29 20 50 20c20 0 37-7 50-20 13-14 20-31 20-52m186 0c0-21-6-38-19-51s-30-20-51-20c-20 0-37 7-50 20s-20 30-20 51 7 38 20 52c13 13 30 20 50 20 21 0 38-7 51-20s19-31 19-52" horiz-adv-x="597" unicode="ë"/><glyph d="M570 259c0-16 0-28-1-37H183c9-34 25-60 50-79s54-29 89-29c25 0 50 5 73 15q34.5 13.5 63 42l81-82c-27-31-60-54-99-70C401 2 357-6 309-6 252-6 203 5 161 28c-43 23-75 55-98 96s-35 89-35 143c0 55 12 103 35 145 23 41 56 74 98 97s90 34 144 34q130.5 0 198-75c45-50 67-120 67-209m-145 54c-1 35-13 64-34 85s-50 32-85 32c-33 0-61-10-83-31-23-21-37-50-43-86m203 377c0-25-8-46-23-62-16-16-36-24-61-24-24 0-44 8-59 25-16 16-24 36-24 61s8 46 24 62c15 16 35 24 59 24 25 0 45-8 61-24 15-16 23-37 23-62" horiz-adv-x="597" unicode="ė"/><glyph d="M570 259c0-16 0-28-1-37H183c9-34 25-60 50-79s54-29 89-29c25 0 50 5 73 15q34.5 13.5 63 42l81-82c-27-31-60-54-99-70C401 2 357-6 309-6 252-6 203 5 161 28c-43 23-75 55-98 96s-35 89-35 143c0 55 12 103 35 145 23 41 56 74 98 97s90 34 144 34q130.5 0 198-75c45-50 67-120 67-209m-145 54c-1 35-13 64-34 85s-50 32-85 32c-33 0-61-10-83-31-23-21-37-50-43-86m206-469c0-25-8-46-23-62-16-16-36-24-61-24-24 0-44 8-59 25-16 16-24 36-24 61s8 46 24 62c15 16 35 24 59 24 25 0 45-8 61-24 15-16 23-37 23-62" horiz-adv-x="597" unicode="ẹ"/><glyph d="M570 259c0-16 0-28-1-37H183c9-34 25-60 50-79s54-29 89-29c25 0 50 5 73 15q34.5 13.5 63 42l81-82c-27-31-60-54-99-70C401 2 357-6 309-6 252-6 203 5 161 28c-43 23-75 55-98 96s-35 89-35 143c0 55 12 103 35 145 23 41 56 74 98 97s90 34 144 34q130.5 0 198-75c45-50 67-120 67-209m-145 54c-1 35-13 64-34 85s-50 32-85 32c-33 0-61-10-83-31-23-21-37-50-43-86m85 451 104-153-112-10-128 110z" horiz-adv-x="597" unicode="è"/><glyph d="M570 259c0-16 0-28-1-37H183c9-34 25-60 50-79s54-29 89-29c25 0 50 5 73 15q34.5 13.5 63 42l81-82c-27-31-60-54-99-70C401 2 357-6 309-6 252-6 203 5 161 28c-43 23-75 55-98 96s-35 89-35 143c0 55 12 103 35 145 23 41 56 74 98 97s90 34 144 34q130.5 0 198-75c45-50 67-120 67-209m-145 54c-1 35-13 64-34 85s-50 32-85 32c-33 0-61-10-83-31-23-21-37-50-43-86m232 402c0-22-7-45-22-68-15-24-36-46-61-67l-72 31c13 13 24 26 32 40 7 14 11 27 11 38 0 8-3 14-8 19s-12 7-20 7c-12 0-24-4-37-13l-42 68c35 23 72 35 111 35 33 0 59-8 79-24 19-16 29-38 29-66" horiz-adv-x="597" unicode="ẻ"/><glyph d="M570 259c0-16 0-28-1-37H183c9-34 25-60 50-79s54-29 89-29c25 0 50 5 73 15q34.5 13.5 63 42l81-82c-27-31-60-54-99-70C401 2 357-6 309-6 252-6 203 5 161 28c-43 23-75 55-98 96s-35 89-35 143c0 55 12 103 35 145 23 41 56 74 98 97s90 34 144 34q130.5 0 198-75c45-50 67-120 67-209m-145 54c-1 35-13 64-34 85s-50 32-85 32c-33 0-61-10-83-31-23-21-37-50-43-86m-36 289c1 47 16 84 45 112q43.5 42 111 42c45 0 81-14 110-42s44-65 46-112h-98c-1 17-7 32-18 43s-24 17-40 17-29-6-40-17-17-26-18-43z" horiz-adv-x="597" unicode="ȇ"/><glyph d="M570 259c0-16 0-28-1-37H183c9-34 25-60 50-79s54-29 89-29c25 0 50 5 73 15q34.5 13.5 63 42l81-82c-27-31-60-54-99-70C401 2 357-6 309-6 252-6 203 5 161 28c-43 23-75 55-98 96s-35 89-35 143c0 55 12 103 35 145 23 41 56 74 98 97s90 34 144 34q130.5 0 198-75c45-50 67-120 67-209m-145 54c-1 35-13 64-34 85s-50 32-85 32c-33 0-61-10-83-31-23-21-37-50-43-86m-32 421h303v-94H148z" horiz-adv-x="597" unicode="ē"/><glyph d="M570 259c0-16 0-28-1-37H183c9-34 25-60 50-79s54-29 89-29c25 0 50 5 73 15q34.5 13.5 63 42l81-82c-27-31-60-54-99-70C401 2 357-6 309-6 252-6 203 5 161 28c-43 23-75 55-98 96s-35 89-35 143c0 55 12 103 35 145 23 41 56 74 98 97s90 34 144 34q130.5 0 198-75c45-50 67-120 67-209m-145 54c-1 35-13 64-34 85s-50 32-85 32c-33 0-61-10-83-31-23-21-37-50-43-86m-32 378h278v-90H148m185 284 112-70-150-82-98 27z" horiz-adv-x="597" unicode="ḗ"/><glyph d="M570 259c0-16 0-28-1-37H183c9-34 25-60 50-79s54-29 89-29c25 0 50 5 73 15q34.5 13.5 63 42l81-82c-27-31-60-54-99-70C401 2 357-6 309-6 252-6 203 5 161 28c-43 23-75 55-98 96s-35 89-35 143c0 55 12 103 35 145 23 41 56 74 98 97s90 34 144 34q130.5 0 198-75c45-50 67-120 67-209m-145 54c-1 35-13 64-34 85s-50 32-85 32c-33 0-61-10-83-31-23-21-37-50-43-86m-34 378h278v-90H146m82 284 135-125-97-27-151 82z" horiz-adv-x="597" unicode="ḕ"/><glyph d="M570 259c0-16 0-28-1-37H183c9-34 25-60 50-79s54-29 89-29c25 0 50 5 73 15q34.5 13.5 63 42l81-82c-13-15-27-28-44-39-24-23-43-48-58-75s-23-51-23-71c0-21 8-31 24-31 11 0 21 3 30 8l28-88c-32-14-62-21-91-21-33 0-60 9-80 28-21 18-31 44-31 79 0 40 16 79 49 116l-34-1C252-6 203 5 161 28c-43 23-75 55-98 96s-35 89-35 143c0 55 12 103 35 145 23 41 56 74 98 97s90 34 144 34q130.5 0 198-75c45-50 67-120 67-209m-145 54c-1 35-13 64-34 85s-50 32-85 32c-33 0-61-10-83-31-23-21-37-50-43-86z" horiz-adv-x="597" unicode="ę"/><glyph d="M570 259c0-16 0-28-1-37H183c9-34 25-60 50-79s54-29 89-29c25 0 50 5 73 15q34.5 13.5 63 42l81-82c-27-31-60-54-99-70C401 2 357-6 309-6 252-6 203 5 161 28c-43 23-75 55-98 96s-35 89-35 143c0 55 12 103 35 145 23 41 56 74 98 97s90 34 144 34q130.5 0 198-75c45-50 67-120 67-209m-145 54c-1 35-13 64-34 85s-50 32-85 32c-33 0-61-10-83-31-23-21-37-50-43-86m203 286c-15 0-29 3-42 8s-29 12-47 21q-12 7.5-24 12c-8 3-15 5-20 5-10 0-17-3-21-10s-6-18-7-33h-91c0 48 7 85 22 111 14 26 37 39 70 39 15 0 29-2 42-7s29-13 47-22c21-12 35-18 44-18 10 0 17 4 21 11s6 18 7 32h91c0-47-7-84-21-110-15-26-38-39-71-39" horiz-adv-x="597" unicode="ẽ"/><glyph d="M569 271c0-55-12-103-35-144-23-42-56-74-98-97S346-5 292-5C205-5 140 20 95 70S27 190 27 279c0 16 0 28 1 37h386c-9 34-25 61-50 80s-54 28-89 28c-25 0-50-5-73-14-23-10-44-24-63-43l-81 82c27 31 61 54 100 71 39 16 82 24 130 24 57 0 106-11 149-34 42-23 75-55 98-96s34-89 34-143m-152-46H172c1-35 13-64 34-85s50-32 85-32c33 0 61 11 84 32 22 21 36 49 42 85" horiz-adv-x="597" unicode="ə"/><glyph d="M256 559v-45h127V407H256V0H103v407H31v107h72v51c0 39 9 72 27 100 17 27 41 48 71 63 30 14 63 21 100 21 35 0 70-7 106-22l-23-120c-10 4-21 8-32 11s-22 4-32 4c-19 0-34-5-46-16s-18-26-18-47" horiz-adv-x="380" unicode="f"/><glyph d="M578 538V50q0-76.5-36-132c-24-38-58-67-101-87-43-21-93-31-150-31-44 0-86 6-125 19-40 13-76 30-109 52l57 108c51-36 106-54 167-54q66 0 105 33 39 31.5 39 87v61c-18-25-41-45-68-58s-59-20-94-20c-46 0-87 11-122 33-36 21-64 52-83 91-20 39-30 85-30 136s10 95 30 134c19 38 47 68 83 89 35 21 76 32 122 32 35 0 66-7 93-20 27-14 50-33 69-58v73m0-254c0 41-12 75-35 101s-54 39-91 39-68-13-91-39-35-60-36-101c1-41 13-75 36-100 23-26 53-39 91-39 37 0 68 13 91 39 23 25 35 59 35 100" horiz-adv-x="645" unicode="g"/><glyph d="M578 538V50q0-76.5-36-132c-24-38-58-67-101-87-43-21-93-31-150-31-44 0-86 6-125 19-40 13-76 30-109 52l57 108c51-36 106-54 167-54q66 0 105 33 39 31.5 39 87v61c-18-25-41-45-68-58s-59-20-94-20c-46 0-87 11-122 33-36 21-64 52-83 91-20 39-30 85-30 136s10 95 30 134c19 38 47 68 83 89 35 21 76 32 122 32 35 0 66-7 93-20 27-14 50-33 69-58v73m0-254c0 41-12 75-35 101s-54 39-91 39-68-13-91-39-35-60-36-101c1-41 13-75 36-100 23-26 53-39 91-39 37 0 68 13 91 39 23 25 35 59 35 100M308 697c16 0 29 6 40 17s17 25 18 43h98c-2-47-17-84-46-112s-65-42-110-42q-67.5 0-111 42c-29 28-44 65-45 112h98c1-18 7-32 18-43s24-17 40-17" horiz-adv-x="645" unicode="ğ"/><glyph d="M578 538V50q0-76.5-36-132c-24-38-58-67-101-87-43-21-93-31-150-31-44 0-86 6-125 19-40 13-76 30-109 52l57 108c51-36 106-54 167-54q66 0 105 33 39 31.5 39 87v61c-18-25-41-45-68-58s-59-20-94-20c-46 0-87 11-122 33-36 21-64 52-83 91-20 39-30 85-30 136s10 95 30 134c19 38 47 68 83 89 35 21 76 32 122 32 35 0 66-7 93-20 27-14 50-33 69-58v73m0-254c0 41-12 75-35 101s-54 39-91 39-68-13-91-39-35-60-36-101c1-41 13-75 36-100 23-26 53-39 91-39 37 0 68 13 91 39 23 25 35 59 35 100m-59 475h121L379 611H238L129 759h122l58-65z" horiz-adv-x="645" unicode="ǧ"/><glyph d="M578 538V50q0-76.5-36-132c-24-38-58-67-101-87-43-21-93-31-150-31-44 0-86 6-125 19-40 13-76 30-109 52l57 108c51-36 106-54 167-54q66 0 105 33 39 31.5 39 87v61c-18-25-41-45-68-58s-59-20-94-20c-46 0-87 11-122 33-36 21-64 52-83 91-20 39-30 85-30 136s10 95 30 134c19 38 47 68 83 89 35 21 76 32 122 32 35 0 66-7 93-20 27-14 50-33 69-58v73m0-254c0 41-12 75-35 101s-54 39-91 39-68-13-91-39-35-60-36-101c1-41 13-75 36-100 23-26 53-39 91-39 37 0 68 13 91 39 23 25 35 59 35 100m62 328H365l-57 65-58-65H129l108 148h141z" horiz-adv-x="645" unicode="ĝ"/><glyph d="M578 538V50q0-76.5-36-132c-24-38-58-67-101-87-43-21-93-31-150-31-44 0-86 6-125 19-40 13-76 30-109 52l57 108c51-36 106-54 167-54q66 0 105 33 39 31.5 39 87v61c-18-25-41-45-68-58s-59-20-94-20c-46 0-87 11-122 33-36 21-64 52-83 91-20 39-30 85-30 136s10 95 30 134c19 38 47 68 83 89 35 21 76 32 122 32 35 0 66-7 93-20 27-14 50-33 69-58v73m0-254c0 41-12 75-35 101s-54 39-91 39-68-13-91-39-35-60-36-101c1-41 13-75 36-100 23-26 53-39 91-39 37 0 68 13 91 39 23 25 35 59 35 100m-61 327H234l68 170h95z" horiz-adv-x="645" unicode="ģ"/><glyph d="M578 538V50q0-76.5-36-132c-24-38-58-67-101-87-43-21-93-31-150-31-44 0-86 6-125 19-40 13-76 30-109 52l57 108c51-36 106-54 167-54q66 0 105 33 39 31.5 39 87v61c-18-25-41-45-68-58s-59-20-94-20c-46 0-87 11-122 33-36 21-64 52-83 91-20 39-30 85-30 136s10 95 30 134c19 38 47 68 83 89 35 21 76 32 122 32 35 0 66-7 93-20 27-14 50-33 69-58v73m0-254c0 41-12 75-35 101s-54 39-91 39-68-13-91-39-35-60-36-101c1-41 13-75 36-100 23-26 53-39 91-39 37 0 68 13 91 39 23 25 35 59 35 100m-34 407c0-25-8-46-23-62-16-16-36-24-61-24-24 0-44 8-59 25-16 16-24 36-24 61s8 46 24 62c15 16 35 24 59 24 25 0 45-8 61-24 15-16 23-37 23-62" horiz-adv-x="645" unicode="ġ"/><glyph d="M578 538V50q0-76.5-36-132c-24-38-58-67-101-87-43-21-93-31-150-31-44 0-86 6-125 19-40 13-76 30-109 52l57 108c51-36 106-54 167-54q66 0 105 33 39 31.5 39 87v61c-18-25-41-45-68-58s-59-20-94-20c-46 0-87 11-122 33-36 21-64 52-83 91-20 39-30 85-30 136s10 95 30 134c19 38 47 68 83 89 35 21 76 32 122 32 35 0 66-7 93-20 27-14 50-33 69-58v73m0-254c0 41-12 75-35 101s-54 39-91 39-68-13-91-39-35-60-36-101c1-41 13-75 36-100 23-26 53-39 91-39 37 0 68 13 91 39 23 25 35 59 35 100M156 735h303v-94H156z" horiz-adv-x="645" unicode="ḡ"/><glyph d="M617 338V0H463v293c0 34-9 61-28 81-19 19-45 29-78 29q-57-1.5-90-39c-23-26-34-59-34-99V0H79v742h154V443c37 66 99 100 186 101 61 0 109-19 145-56 35-37 53-87 53-150" horiz-adv-x="675" unicode="h"/><glyph d="M617 308V0H463v264c0 34-9 61-28 80s-45 29-78 29q-57 0-90-39c-23-26-34-59-34-99V0H79v581H13v80h66v81h154v-81h185v-80H233V413c37 67 99 101 186 101 61 0 109-18 145-55 35-37 53-88 53-151" horiz-adv-x="675" unicode="ħ"/><glyph d="M617 338V0H463v293c0 34-9 61-28 81-19 19-45 29-78 29q-57-1.5-90-39c-23-26-34-59-34-99V0H79v742h154V443c37 66 99 100 186 101 61 0 109-19 145-56 35-37 53-87 53-150M348-116c16 0 29 6 40 17s17 25 18 43h98c-2-47-17-84-46-112s-65-42-110-42q-67.5 0-111 42c-29 28-44 65-45 112h98c1-18 7-32 18-43s24-17 40-17" horiz-adv-x="675" unicode="ḫ"/><glyph d="M617 338V0H463v293c0 34-9 61-28 81-19 19-45 29-78 29q-57-1.5-90-39c-23-26-34-59-34-99V0H79v742h154V443c37 66 99 100 186 101 61 0 109-19 145-56 35-37 53-87 53-150M332 816H210l-57 65-58-65H-26L82 964h141z" horiz-adv-x="675" unicode="ĥ"/><glyph d="M617 338V0H463v293c0 34-9 61-28 81-19 19-45 29-78 29q-57-1.5-90-39c-23-26-34-59-34-99V0H79v742h154V443c37 66 99 100 186 101 61 0 109-19 145-56 35-37 53-87 53-150M431-156c0-25-8-46-23-62-16-16-36-24-61-24-24 0-44 8-59 25-16 16-24 36-24 61s8 46 24 62c15 16 35 24 59 24 25 0 45-8 61-24 15-16 23-37 23-62" horiz-adv-x="675" unicode="ḥ"/><glyph d="M74 538h154V0H74m160 691c0-25-8-46-23-62-16-16-36-24-61-24-24 0-44 8-59 25-16 16-24 36-24 61s8 46 24 62c15 16 35 24 59 24 25 0 45-8 61-24 15-16 23-37 23-62" horiz-adv-x="302" unicode="i"/><glyph d="M74 538h154V0H74z" horiz-adv-x="302" unicode="ı"/><glyph d="M74 538h154V0H74m111 765 136-53-136-110-112 10z" horiz-adv-x="302" unicode="í"/><glyph d="M74 538h154V0H74m77 697c16 0 29 6 40 17s17 25 18 43h98c-2-47-17-84-46-112s-65-42-110-42q-67.5 0-111 42C11 673-4 710-5 757h98c1-18 7-32 18-43s24-17 40-17" horiz-adv-x="302" unicode="ĭ"/><glyph d="M74 538h154V0H74m256 612H208l-57 65-58-65H-28L80 760h141z" horiz-adv-x="302" unicode="î"/><glyph d="M74 538h154V0H74M47 769l79-157-109-10-91 120m305 47 80-157-109-10-91 120z" horiz-adv-x="302" unicode="ȉ"/><glyph d="M74 538h154V0H74m60 687c0-21-6-38-19-52s-30-21-50-21q-31.5 0-51 21C1 649-6 666-6 687s7 38 20 51 30 20 51 20c20 0 37-7 50-20s19-30 19-51m174 0c0-21-7-38-20-52s-30-21-50-21-37 7-50 21-20 31-20 52 7 38 20 51 29 20 50 20c20 0 37-7 50-20s20-30 20-51" horiz-adv-x="302" unicode="ï"/><glyph d="M74 538h154V0H74m53 671c0-20-6-37-19-50-13-14-30-21-50-21s-36 7-49 21c-13 13-20 30-20 50 0 21 7 38 20 51s29 20 49 20 37-7 50-20 19-30 19-51m185 0c0-20-6-37-19-50-13-14-30-21-49-21-20 0-37 7-50 21-13 13-20 30-20 50 0 21 7 38 20 51s29 20 50 20c19 0 36-7 49-20s19-30 19-51M196 912l112-70-150-82-98 27z" horiz-adv-x="302" unicode="ḯ"/><glyph d="M74 538h154V0H74m160 691c0-25-8-46-23-62-16-16-36-24-61-24-24 0-44 8-59 25-16 16-24 36-24 61s8 46 24 62c15 16 35 24 59 24 25 0 45-8 61-24 15-16 23-37 23-62m0-847c0-25-8-46-23-62-16-16-36-24-61-24-24 0-44 8-59 25-16 16-24 36-24 61s8 46 24 62c15 16 35 24 59 24 25 0 45-8 61-24 15-16 23-37 23-62" horiz-adv-x="302" unicode="ị"/><glyph d="M74 538h154V0H74m42 765 104-153-112-10-128 110z" horiz-adv-x="302" unicode="ì"/><glyph d="M74 538h154V0H74m189 716c0-22-7-45-22-68-15-24-36-46-61-67l-72 31c13 13 24 26 32 40 7 14 11 27 11 38 0 8-3 14-8 19s-12 7-20 7c-12 0-24-4-37-13l-42 68c35 23 72 35 111 35 33 0 59-8 79-24 19-16 29-38 29-66" horiz-adv-x="302" unicode="ỉ"/><glyph d="M74 538h154V0H74M1 603c2 47 17 84 44 113q40.5 42 105 42c43 0 79-14 106-42 27-29 41-66 42-113h-97c-1 17-7 32-16 43s-21 16-35 16-26-5-35-16-15-26-16-43z" horiz-adv-x="302" unicode="ȋ"/><glyph d="M74 538h154V0H74m160 691c0-25-8-46-23-62-16-16-36-24-61-24-24 0-44 8-59 25-16 16-24 36-24 61s8 46 24 62c15 16 35 24 59 24 25 0 45-8 61-24 15-16 23-37 23-62m81-766c21-1 36 6 47 19s16 33 16 58v536h153V-22c0-55-16-99-48-130q-48-48-132-48-61.5 0-111 21l32 112c15-5 30-7 43-8m221 766c0-25-8-46-23-62-16-16-36-24-61-24-24 0-44 8-59 25-16 16-24 36-24 61s8 46 24 62c15 16 35 24 59 24 25 0 45-8 61-24 15-16 23-37 23-62" horiz-adv-x="604" unicode="ĳ"/><glyph d="M74 538h154V0H74M15 735h271v-94H15z" horiz-adv-x="302" unicode="ī"/><glyph d="M67 691c0 25 8 46 24 62 15 16 35 24 59 24 25 0 45-8 61-24 15-16 23-37 23-62s-8-46-23-62c-16-16-36-24-61-24-24 0-44 8-59 25-16 16-24 36-24 61m7-153h154V0h-22c-28-20-48-38-61-53-13-16-20-32-20-47q0-27 24-27c11 0 21 3 30 8l29-88q-48-21-93-21c-34 0-61 9-80 27-20 18-30 43-30 74C5-79 28-34 74 7z" horiz-adv-x="302" unicode="į"/><glyph d="M74 538h154V0H74m154 598c-14 0-27 2-38 7s-25 12-41 21c-17 11-29 16-36 16-17 0-25-14-25-41H-4c0 100 29 150 88 150 13 0 26-2 37-6 11-5 24-11 41-20 7-4 13-7 20-10 6-3 11-5 16-5 9 0 16 3 20 9 3 6 5 15 6 28h91q0-73.5-21-111c-14-25-36-38-66-38" horiz-adv-x="302" unicode="ĩ"/><glyph d="M13-75c21-1 36 6 47 19S76-23 76 2v536h153V-22c0-55-16-99-48-130q-48-48-132-48-61.5 0-111 21l32 112c15-5 30-7 43-8m221 766c0-25-8-46-23-62-16-16-36-24-61-24-24 0-44 8-59 25-16 16-24 36-24 61s8 46 24 62c15 16 35 24 59 24 25 0 45-8 61-24 15-16 23-37 23-62" horiz-adv-x="298" unicode="j"/><glyph d="M13-75c21-1 36 6 47 19S76-23 76 2v536h153V-22c0-55-16-99-48-130q-48-48-132-48-61.5 0-111 21l32 112c15-5 30-7 43-8" horiz-adv-x="298" unicode="ȷ"/><glyph d="M13-75c21-1 36 6 47 19S76-23 76 2v536h153V-22c0-55-16-99-48-130q-48-48-132-48-61.5 0-111 21l32 112c15-5 30-7 43-8m318 687H209l-57 65-58-65H-27L81 760h141z" horiz-adv-x="298" unicode="ĵ"/><glyph d="M432 0 302 219l-69-73V0H79v742h154V334l197 203h175L408 330 614 0z" horiz-adv-x="619" unicode="k"/><glyph d="M432 0 302 219l-69-73V0H79v742h154V334l197 203h175L408 330 614 0M260-59h130l-68-170h-95z" horiz-adv-x="619" unicode="ķ"/><glyph d="M426 0 296 220l-68-72V0H74v538h154V330l196 208h175L401 331 608 0z" horiz-adv-x="613" unicode="ĸ"/><glyph d="M79 742h154V0H79z" horiz-adv-x="313" unicode="l"/><glyph d="M79 742h154V0H79m112 969 136-53-136-110-112 10z" horiz-adv-x="313" unicode="ĺ"/><glyph d="M79 742h154V0H79m228 742h125l-30-212h-95z" horiz-adv-x="409" unicode="ľ"/><glyph d="M79 742h154V0H79m13-59h130l-68-170H59z" horiz-adv-x="313" unicode="ļ"/><glyph d="M79 742h154V0H79m376 399c0-25-8-46-23-62-16-16-36-24-61-24-24 0-44 8-59 25-16 16-24 36-24 61s8 46 24 62c15 16 35 24 59 24 25 0 45-8 61-24 15-16 23-37 23-62" horiz-adv-x="454" unicode="ŀ"/><glyph d="M79 742h154V0H79m161-156c0-25-8-46-23-62-16-16-36-24-61-24-24 0-44 8-59 25-16 16-24 36-24 61s8 46 24 62c15 16 35 24 59 24 25 0 45-8 61-24 15-16 23-37 23-62" horiz-adv-x="313" unicode="ḷ"/><glyph d="M79 742h154V0H79m247-75c21-1 36 6 47 19s16 33 16 58v536h153V-22c0-55-16-99-48-130q-48-48-132-48-61.5 0-111 21l32 112c15-5 30-7 43-8m221 766c0-25-8-46-23-62-16-16-36-24-61-24-24 0-44 8-59 25-16 16-24 36-24 61s8 46 24 62c15 16 35 24 59 24 25 0 45-8 61-24 15-16 23-37 23-62" horiz-adv-x="611" unicode="ǉ"/><glyph d="M79 742h154V0H79M5-78h303v-94H5z" horiz-adv-x="313" unicode="ḻ"/><glyph d="M390 533v-93l-106-56V0H130v303L23 247v94l107 56v345h154V478z" horiz-adv-x="409" unicode="ł"/><glyph d="M980 338V0H827v293c0 35-9 62-28 81s-44 29-76 29q-55.5-1.5-87-39c-21-25-32-58-32-98V0H451v293q0 51-27 81c-19 19-44 29-76 29q-55.5-1.5-87-39c-22-25-33-58-33-98V0H74v538h154v-93c37 65 98 98 182 99 45 0 84-11 115-32 31-22 54-53 67-92 17 41 43 71 76 92s72 31 118 32c59 0 107-18 142-55s52-88 52-151" horiz-adv-x="1039" unicode="m"/><glyph d="M980 338V0H827v293c0 35-9 62-28 81s-44 29-76 29q-55.5-1.5-87-39c-21-25-32-58-32-98V0H451v293q0 51-27 81c-19 19-44 29-76 29q-55.5-1.5-87-39c-22-25-33-58-33-98V0H74v538h154v-93c37 65 98 98 182 99 45 0 84-11 115-32 31-22 54-53 67-92 17 41 43 71 76 92s72 31 118 32c59 0 107-18 142-55s52-88 52-151M611-156c0-25-8-46-23-62-16-16-36-24-61-24-24 0-44 8-59 25-16 16-24 36-24 61s8 46 24 62c15 16 35 24 59 24 25 0 45-8 61-24 15-16 23-37 23-62" horiz-adv-x="1039" unicode="ṃ"/><glyph d="M611 338V0H457v293c0 34-9 61-28 81-19 19-45 29-78 29q-57-1.5-90-39-33-39-33-99V0H74v538h154v-94c37 65 99 99 186 100 60 0 108-19 144-56 35-37 53-87 53-150" horiz-adv-x="670" unicode="n"/><glyph d="M611 338V0H457v293c0 34-9 61-28 81-19 19-45 29-78 29q-57-1.5-90-39-33-39-33-99V0H74v538h154v-94c37 65 99 99 186 100 60 0 108-19 144-56 35-37 53-87 53-150M385 765l136-53-136-110-112 10z" horiz-adv-x="670" unicode="ń"/><glyph d="M40 700h108l-20-261H40m710-101V0H596v293c0 34-9 61-28 81-19 19-45 29-78 29q-57-1.5-90-39-33-39-33-99V0H213v538h154v-94c37 65 99 99 186 100 60 0 108-19 144-56 35-37 53-87 53-150" horiz-adv-x="809" unicode="ŉ"/><glyph d="M611 338V0H457v293c0 34-9 61-28 81-19 19-45 29-78 29q-57-1.5-90-39-33-39-33-99V0H74v538h154v-94c37 65 99 99 186 100 60 0 108-19 144-56 35-37 53-87 53-150M409 759h121L422 611H281L172 759h122l58-65z" horiz-adv-x="670" unicode="ň"/><glyph d="M611 338V0H457v293c0 34-9 61-28 81-19 19-45 29-78 29q-57-1.5-90-39-33-39-33-99V0H74v538h154v-94c37 65 99 99 186 100 60 0 108-19 144-56 35-37 53-87 53-150M275-59h130l-68-170h-95z" horiz-adv-x="670" unicode="ņ"/><glyph d="M611 338V0H457v293c0 34-9 61-28 81-19 19-45 29-78 29q-57-1.5-90-39-33-39-33-99V0H74v538h154v-94c37 65 99 99 186 100 60 0 108-19 144-56 35-37 53-87 53-150M434 691c0-25-8-46-23-62-16-16-36-24-61-24-24 0-44 8-59 25-16 16-24 36-24 61s8 46 24 62c15 16 35 24 59 24 25 0 45-8 61-24 15-16 23-37 23-62" horiz-adv-x="670" unicode="ṅ"/><glyph d="M611 338V0H457v293c0 34-9 61-28 81-19 19-45 29-78 29q-57-1.5-90-39-33-39-33-99V0H74v538h154v-94c37 65 99 99 186 100 60 0 108-19 144-56 35-37 53-87 53-150M423-156c0-25-8-46-23-62-16-16-36-24-61-24-24 0-44 8-59 25-16 16-24 36-24 61s8 46 24 62c15 16 35 24 59 24 25 0 45-8 61-24 15-16 23-37 23-62" horiz-adv-x="670" unicode="ṇ"/><glyph d="M611 338V-18c0-39-8-72-25-99q-25.5-42-69-63c-29-14-60-21-95-21-48 0-90 12-127 36l42 113c23-14 44-21 64-21 17 0 30 5 41 16 10 10 15 26 15 47v303c0 34-9 61-28 81-19 19-45 29-78 29q-57-1.5-90-39-33-39-33-99V0H74v538h154v-94c37 65 99 99 186 100 60 0 108-19 144-56 35-37 53-87 53-150" horiz-adv-x="670" unicode="ŋ"/><glyph d="M611 338V0H457v293c0 34-9 61-28 81-19 19-45 29-78 29q-57-1.5-90-39-33-39-33-99V0H74v538h154v-94c37 65 99 99 186 100 60 0 108-19 144-56 35-37 53-87 53-150m72-413c21-1 36 6 47 19s16 33 16 58v536h153V-22c0-55-16-99-48-130q-48-48-132-48-61.5 0-111 21l32 112c15-5 30-7 43-8m221 766c0-25-8-46-23-62-16-16-36-24-61-24-24 0-44 8-59 25-16 16-24 36-24 61s8 46 24 62c15 16 35 24 59 24 25 0 45-8 61-24 15-16 23-37 23-62" horiz-adv-x="968" unicode="ǌ"/><glyph d="M611 338V0H457v293c0 34-9 61-28 81-19 19-45 29-78 29q-57-1.5-90-39-33-39-33-99V0H74v538h154v-94c37 65 99 99 186 100 60 0 108-19 144-56 35-37 53-87 53-150M188-78h303v-94H188z" horiz-adv-x="670" unicode="ṉ"/><glyph d="M611 338V0H457v293c0 34-9 61-28 81-19 19-45 29-78 29q-57-1.5-90-39-33-39-33-99V0H74v538h154v-94c37 65 99 99 186 100 60 0 108-19 144-56 35-37 53-87 53-150M434 600c-15 0-29 3-42 8s-29 12-47 21q-12 7.5-24 12c-8 3-15 5-20 5-10 0-17-3-21-10s-6-18-7-33h-91c0 48 7 85 22 111 14 26 37 39 70 39 15 0 29-2 42-7s29-13 47-22c21-12 35-18 44-18 10 0 17 4 21 11s6 18 7 32h91c0-47-7-84-21-110-15-26-38-39-71-39" horiz-adv-x="670" unicode="ñ"/><glyph d="M605 269c0-54-12-102-36-143-24-42-58-74-101-97C424 6 374-6 317-6S209 6 166 29c-44 23-78 55-102 97-24 41-36 89-36 143q0 82.5 36 144t102 96c43 23 94 34 151 34s107-11 151-34c43-23 77-55 101-96q36-61.5 36-144m-423-2c0-44 13-80 38-107s57-41 97-41c39 0 72 14 97 41s37 63 37 107-12 80-37 107-58 41-97 41c-40 0-72-14-97-41s-38-63-38-107" horiz-adv-x="633" unicode="o"/><glyph d="M605 269c0-54-12-102-36-143-24-42-58-74-101-97C424 6 374-6 317-6S209 6 166 29c-44 23-78 55-102 97-24 41-36 89-36 143q0 82.5 36 144t102 96c43 23 94 34 151 34s107-11 151-34c43-23 77-55 101-96q36-61.5 36-144m-423-2c0-44 13-80 38-107s57-41 97-41c39 0 72 14 97 41s37 63 37 107-12 80-37 107-58 41-97 41c-40 0-72-14-97-41s-38-63-38-107m169 498 136-53-136-110-112 10z" horiz-adv-x="633" unicode="ó"/><glyph d="M605 269c0-54-12-102-36-143-24-42-58-74-101-97C424 6 374-6 317-6S209 6 166 29c-44 23-78 55-102 97-24 41-36 89-36 143q0 82.5 36 144t102 96c43 23 94 34 151 34s107-11 151-34c43-23 77-55 101-96q36-61.5 36-144m-423-2c0-44 13-80 38-107s57-41 97-41c39 0 72 14 97 41s37 63 37 107-12 80-37 107-58 41-97 41c-40 0-72-14-97-41s-38-63-38-107m135 430c16 0 29 6 40 17s17 25 18 43h98c-2-47-17-84-46-112s-65-42-110-42q-67.5 0-111 42c-29 28-44 65-45 112h98c1-18 7-32 18-43s24-17 40-17" horiz-adv-x="633" unicode="ŏ"/><glyph d="M605 269c0-54-12-102-36-143-24-42-58-74-101-97C424 6 374-6 317-6S209 6 166 29c-44 23-78 55-102 97-24 41-36 89-36 143q0 82.5 36 144t102 96c43 23 94 34 151 34s107-11 151-34c43-23 77-55 101-96q36-61.5 36-144m-423-2c0-44 13-80 38-107s57-41 97-41c39 0 72 14 97 41s37 63 37 107-12 80-37 107-58 41-97 41c-40 0-72-14-97-41s-38-63-38-107m314 345H374l-57 65-58-65H138l108 148h141z" horiz-adv-x="633" unicode="ô"/><glyph d="M605 269c0-54-12-102-36-143-24-42-58-74-101-97C424 6 374-6 317-6S209 6 166 29c-44 23-78 55-102 97-24 41-36 89-36 143q0 82.5 36 144t102 96c43 23 94 34 151 34s107-11 151-34c43-23 77-55 101-96q36-61.5 36-144m-423-2c0-44 13-80 38-107s57-41 97-41c39 0 72 14 97 41s37 63 37 107-12 80-37 107-58 41-97 41c-40 0-72-14-97-41s-38-63-38-107m333 335H381l-64 57-65-57H118l111 115h174m-41 182 112-70-150-82-98 27z" horiz-adv-x="633" unicode="ố"/><glyph d="M605 269c0-54-12-102-36-143-24-42-58-74-101-97C424 6 374-6 317-6S209 6 166 29c-44 23-78 55-102 97-24 41-36 89-36 143q0 82.5 36 144t102 96c43 23 94 34 151 34s107-11 151-34c43-23 77-55 101-96q36-61.5 36-144m-423-2c0-44 13-80 38-107s57-41 97-41c39 0 72 14 97 41s37 63 37 107-12 80-37 107-58 41-97 41c-40 0-72-14-97-41s-38-63-38-107m218-423c0-25-8-46-23-62-16-16-36-24-61-24-24 0-44 8-59 25-16 16-24 36-24 61s8 46 24 62c15 16 35 24 59 24 25 0 45-8 61-24 15-16 23-37 23-62m96 768H374l-57 65-58-65H138l108 148h141z" horiz-adv-x="633" unicode="ộ"/><glyph d="M605 269c0-54-12-102-36-143-24-42-58-74-101-97C424 6 374-6 317-6S209 6 166 29c-44 23-78 55-102 97-24 41-36 89-36 143q0 82.5 36 144t102 96c43 23 94 34 151 34s107-11 151-34c43-23 77-55 101-96q36-61.5 36-144m-423-2c0-44 13-80 38-107s57-41 97-41c39 0 72 14 97 41s37 63 37 107-12 80-37 107-58 41-97 41c-40 0-72-14-97-41s-38-63-38-107m333 335H381l-64 57-65-57H118l111 115h174M259 899l135-125-97-27-151 82z" horiz-adv-x="633" unicode="ồ"/><glyph d="M605 269c0-54-12-102-36-143-24-42-58-74-101-97C424 6 374-6 317-6S209 6 166 29c-44 23-78 55-102 97-24 41-36 89-36 143q0 82.5 36 144t102 96c43 23 94 34 151 34s107-11 151-34c43-23 77-55 101-96q36-61.5 36-144m-423-2c0-44 13-80 38-107s57-41 97-41c39 0 72 14 97 41s37 63 37 107-12 80-37 107-58 41-97 41c-40 0-72-14-97-41s-38-63-38-107m333 335H381l-64 57-65-57H118l111 115h174m0 130c0-35-24-68-71-101l-66 26q36 25.5 36 48c0 6-2 11-6 14s-9 4-16 4c-11 0-21-3-30-10l-40 58c33 21 67 31 101 31 29 0 51-7 68-20 16-13 24-30 24-50" horiz-adv-x="633" unicode="ổ"/><glyph d="M605 269c0-54-12-102-36-143-24-42-58-74-101-97C424 6 374-6 317-6S209 6 166 29c-44 23-78 55-102 97-24 41-36 89-36 143q0 82.5 36 144t102 96c43 23 94 34 151 34s107-11 151-34c43-23 77-55 101-96q36-61.5 36-144m-423-2c0-44 13-80 38-107s57-41 97-41c39 0 72 14 97 41s37 63 37 107-12 80-37 107-58 41-97 41c-40 0-72-14-97-41s-38-63-38-107m333 335H381l-64 57-65-57H118l111 115h174m-7 34c-16 0-31 2-45 7s-30 11-49 20c-2 1-9 4-20 9-12 5-22 7-29 7-11 0-19-3-24-10s-7-17-7-30h-76c0 41 7 72 21 95q21 33 69 33c16 0 32-2 47-7s31-11 49-20c23-11 39-16 48-16 11 0 18 3 23 10s7 17 7 30h77c0-41-7-73-21-95-15-22-38-33-70-33" horiz-adv-x="633" unicode="ỗ"/><glyph d="M605 269c0-54-12-102-36-143-24-42-58-74-101-97C424 6 374-6 317-6S209 6 166 29c-44 23-78 55-102 97-24 41-36 89-36 143q0 82.5 36 144t102 96c43 23 94 34 151 34s107-11 151-34c43-23 77-55 101-96q36-61.5 36-144m-423-2c0-44 13-80 38-107s57-41 97-41c39 0 72 14 97 41s37 63 37 107-12 80-37 107-58 41-97 41c-40 0-72-14-97-41s-38-63-38-107m31 502 79-157-109-10-91 120m305 47 80-157-109-10-91 120z" horiz-adv-x="633" unicode="ȍ"/><glyph d="M605 269c0-54-12-102-36-143-24-42-58-74-101-97C424 6 374-6 317-6S209 6 166 29c-44 23-78 55-102 97-24 41-36 89-36 143q0 82.5 36 144t102 96c43 23 94 34 151 34s107-11 151-34c43-23 77-55 101-96q36-61.5 36-144m-423-2c0-44 13-80 38-107s57-41 97-41c39 0 72 14 97 41s37 63 37 107-12 80-37 107-58 41-97 41c-40 0-72-14-97-41s-38-63-38-107m112 419c0-21-7-38-20-51s-30-20-50-20c-21 0-37 7-50 20s-20 30-20 51 7 39 20 52 29 20 50 20c20 0 37-7 50-20 13-14 20-31 20-52m186 0c0-21-6-38-19-51s-30-20-51-20c-20 0-37 7-50 20s-20 30-20 51 7 38 20 52c13 13 30 20 50 20 21 0 38-7 51-20s19-31 19-52" horiz-adv-x="633" unicode="ö"/><glyph d="M605 269c0-54-12-102-36-143-24-42-58-74-101-97C424 6 374-6 317-6S209 6 166 29c-44 23-78 55-102 97-24 41-36 89-36 143q0 82.5 36 144t102 96c43 23 94 34 151 34s107-11 151-34c43-23 77-55 101-96q36-61.5 36-144m-423-2c0-44 13-80 38-107s57-41 97-41c39 0 72 14 97 41s37 63 37 107-12 80-37 107-58 41-97 41c-40 0-72-14-97-41s-38-63-38-107m111 404c0-20-6-37-19-50-13-14-30-21-50-21s-36 7-49 21c-13 13-20 30-20 50 0 21 7 38 20 51s29 20 49 20 37-7 50-20 19-30 19-51m185 0c0-20-6-37-19-50-13-14-30-21-49-21-20 0-37 7-50 21-13 13-20 30-20 50 0 21 7 38 20 51s29 20 50 20c19 0 36-7 49-20s19-30 19-51M177 870h278v-90H177z" horiz-adv-x="633" unicode="ȫ"/><glyph d="M605 269c0-54-12-102-36-143-24-42-58-74-101-97C424 6 374-6 317-6S209 6 166 29c-44 23-78 55-102 97-24 41-36 89-36 143q0 82.5 36 144t102 96c43 23 94 34 151 34s107-11 151-34c43-23 77-55 101-96q36-61.5 36-144m-423-2c0-44 13-80 38-107s57-41 97-41c39 0 72 14 97 41s37 63 37 107-12 80-37 107-58 41-97 41c-40 0-72-14-97-41s-38-63-38-107m209 409q0-33-21-54c-15-15-33-22-54-22s-39 7-53 22q-21 21-21 54c0 22 7 40 21 55 14 14 32 21 53 21q31.5 0 54-21c14-14 21-32 21-55M178 870h278v-90H178z" horiz-adv-x="633" unicode="ȱ"/><glyph d="M605 269c0-54-12-102-36-143-24-42-58-74-101-97C424 6 374-6 317-6S209 6 166 29c-44 23-78 55-102 97-24 41-36 89-36 143q0 82.5 36 144t102 96c43 23 94 34 151 34s107-11 151-34c43-23 77-55 101-96q36-61.5 36-144m-423-2c0-44 13-80 38-107s57-41 97-41c39 0 72 14 97 41s37 63 37 107-12 80-37 107-58 41-97 41c-40 0-72-14-97-41s-38-63-38-107m218-423c0-25-8-46-23-62-16-16-36-24-61-24-24 0-44 8-59 25-16 16-24 36-24 61s8 46 24 62c15 16 35 24 59 24 25 0 45-8 61-24 15-16 23-37 23-62" horiz-adv-x="633" unicode="ọ"/><glyph d="M605 269c0-54-12-102-36-143-24-42-58-74-101-97C424 6 374-6 317-6S209 6 166 29c-44 23-78 55-102 97-24 41-36 89-36 143q0 82.5 36 144t102 96c43 23 94 34 151 34s107-11 151-34c43-23 77-55 101-96q36-61.5 36-144m-423-2c0-44 13-80 38-107s57-41 97-41c39 0 72 14 97 41s37 63 37 107-12 80-37 107-58 41-97 41c-40 0-72-14-97-41s-38-63-38-107m100 498 104-153-112-10-128 110z" horiz-adv-x="633" unicode="ò"/><glyph d="M605 269c0-54-12-102-36-143-24-42-58-74-101-97C424 6 374-6 317-6S209 6 166 29c-44 23-78 55-102 97-24 41-36 89-36 143q0 82.5 36 144t102 96c43 23 94 34 151 34s107-11 151-34c43-23 77-55 101-96q36-61.5 36-144m-423-2c0-44 13-80 38-107s57-41 97-41c39 0 72 14 97 41s37 63 37 107-12 80-37 107-58 41-97 41c-40 0-72-14-97-41s-38-63-38-107m247 449c0-22-7-45-22-68-15-24-36-46-61-67l-72 31c13 13 24 26 32 40 7 14 11 27 11 38 0 8-3 14-8 19s-12 7-20 7c-12 0-24-4-37-13l-42 68c35 23 72 35 111 35 33 0 59-8 79-24 19-16 29-38 29-66" horiz-adv-x="633" unicode="ỏ"/><glyph d="M679 578c0-37-10-70-31-97s-50-46-87-55c29-45 44-98 44-157 0-54-12-102-36-143-24-42-58-74-101-97C424 6 374-6 317-6S209 6 166 29c-44 23-78 55-102 97-24 41-36 89-36 143q0 82.5 36 144t102 96c43 23 94 34 151 34 55 0 103-11 146-32 13-4 24-6 32-6 19 0 34 7 45 20s16 29 16 48c0 23-7 45-22 66l118 43c18-34 27-69 27-104M451 267c0 44-12 80-37 107s-58 41-97 41c-40 0-72-14-97-41s-38-63-38-107 13-80 38-107 57-41 97-41c39 0 72 14 97 41s37 63 37 107" horiz-adv-x="671" unicode="ơ"/><glyph d="M679 578c0-37-10-70-31-97s-50-46-87-55c29-45 44-98 44-157 0-54-12-102-36-143-24-42-58-74-101-97C424 6 374-6 317-6S209 6 166 29c-44 23-78 55-102 97-24 41-36 89-36 143q0 82.5 36 144t102 96c43 23 94 34 151 34 55 0 103-11 146-32 13-4 24-6 32-6 19 0 34 7 45 20s16 29 16 48c0 23-7 45-22 66l118 43c18-34 27-69 27-104M451 267c0 44-12 80-37 107s-58 41-97 41c-40 0-72-14-97-41s-38-63-38-107 13-80 38-107 57-41 97-41c39 0 72 14 97 41s37 63 37 107M351 765l136-53-136-110-112 10z" horiz-adv-x="671" unicode="ớ"/><glyph d="M679 578c0-37-10-70-31-97s-50-46-87-55c29-45 44-98 44-157 0-54-12-102-36-143-24-42-58-74-101-97C424 6 374-6 317-6S209 6 166 29c-44 23-78 55-102 97-24 41-36 89-36 143q0 82.5 36 144t102 96c43 23 94 34 151 34 55 0 103-11 146-32 13-4 24-6 32-6 19 0 34 7 45 20s16 29 16 48c0 23-7 45-22 66l118 43c18-34 27-69 27-104M451 267c0 44-12 80-37 107s-58 41-97 41c-40 0-72-14-97-41s-38-63-38-107 13-80 38-107 57-41 97-41c39 0 72 14 97 41s37 63 37 107m-52-423c0-25-8-46-23-62-16-16-36-24-61-24-24 0-44 8-59 25-16 16-24 36-24 61s8 46 24 62c15 16 35 24 59 24 25 0 45-8 61-24 15-16 23-37 23-62" horiz-adv-x="671" unicode="ợ"/><glyph d="M679 578c0-37-10-70-31-97s-50-46-87-55c29-45 44-98 44-157 0-54-12-102-36-143-24-42-58-74-101-97C424 6 374-6 317-6S209 6 166 29c-44 23-78 55-102 97-24 41-36 89-36 143q0 82.5 36 144t102 96c43 23 94 34 151 34 55 0 103-11 146-32 13-4 24-6 32-6 19 0 34 7 45 20s16 29 16 48c0 23-7 45-22 66l118 43c18-34 27-69 27-104M451 267c0 44-12 80-37 107s-58 41-97 41c-40 0-72-14-97-41s-38-63-38-107 13-80 38-107 57-41 97-41c39 0 72 14 97 41s37 63 37 107M282 765l104-153-112-10-128 110z" horiz-adv-x="671" unicode="ờ"/><glyph d="M679 578c0-37-10-70-31-97s-50-46-87-55c29-45 44-98 44-157 0-54-12-102-36-143-24-42-58-74-101-97C424 6 374-6 317-6S209 6 166 29c-44 23-78 55-102 97-24 41-36 89-36 143q0 82.5 36 144t102 96c43 23 94 34 151 34 55 0 103-11 146-32 13-4 24-6 32-6 19 0 34 7 45 20s16 29 16 48c0 23-7 45-22 66l118 43c18-34 27-69 27-104M451 267c0 44-12 80-37 107s-58 41-97 41c-40 0-72-14-97-41s-38-63-38-107 13-80 38-107 57-41 97-41c39 0 72 14 97 41s37 63 37 107m-22 449c0-22-7-45-22-68-15-24-36-46-61-67l-72 31c13 13 24 26 32 40 7 14 11 27 11 38 0 8-3 14-8 19s-12 7-20 7c-12 0-24-4-37-13l-42 68c35 23 72 35 111 35 33 0 59-8 79-24 19-16 29-38 29-66" horiz-adv-x="671" unicode="ở"/><glyph d="M679 578c0-37-10-70-31-97s-50-46-87-55c29-45 44-98 44-157 0-54-12-102-36-143-24-42-58-74-101-97C424 6 374-6 317-6S209 6 166 29c-44 23-78 55-102 97-24 41-36 89-36 143q0 82.5 36 144t102 96c43 23 94 34 151 34 55 0 103-11 146-32 13-4 24-6 32-6 19 0 34 7 45 20s16 29 16 48c0 23-7 45-22 66l118 43c18-34 27-69 27-104M451 267c0 44-12 80-37 107s-58 41-97 41c-40 0-72-14-97-41s-38-63-38-107 13-80 38-107 57-41 97-41c39 0 72 14 97 41s37 63 37 107m-51 333c-15 0-29 3-42 8s-29 12-47 21q-12 7.5-24 12c-8 3-15 5-20 5-10 0-17-3-21-10s-6-18-7-33h-91c0 48 7 85 22 111 14 26 37 39 70 39 15 0 29-2 42-7s29-13 47-22c21-12 35-18 44-18 10 0 17 4 21 11s6 18 7 32h91c0-47-7-84-21-110-15-26-38-39-71-39" horiz-adv-x="671" unicode="ỡ"/><glyph d="M605 269c0-54-12-102-36-143-24-42-58-74-101-97C424 6 374-6 317-6S209 6 166 29c-44 23-78 55-102 97-24 41-36 89-36 143q0 82.5 36 144t102 96c43 23 94 34 151 34s107-11 151-34c43-23 77-55 101-96q36-61.5 36-144m-423-2c0-44 13-80 38-107s57-41 97-41c39 0 72 14 97 41s37 63 37 107-12 80-37 107-58 41-97 41c-40 0-72-14-97-41s-38-63-38-107m50 502 121-47-91-120-110 10m265 157 120-47-91-120-109 10z" horiz-adv-x="633" unicode="ő"/><glyph d="M605 269c0-54-12-102-36-143-24-42-58-74-101-97C424 6 374-6 317-6S209 6 166 29c-44 23-78 55-102 97-24 41-36 89-36 143q0 82.5 36 144t102 96c43 23 94 34 151 34s107-11 151-34c43-23 77-55 101-96q36-61.5 36-144m-423-2c0-44 13-80 38-107s57-41 97-41c39 0 72 14 97 41s37 63 37 107-12 80-37 107-58 41-97 41c-40 0-72-14-97-41s-38-63-38-107m-21 336c1 47 16 84 45 112q43.5 42 111 42c45 0 81-14 110-42s44-65 46-112h-98c-1 17-7 32-18 43s-24 17-40 17-29-6-40-17-17-26-18-43z" horiz-adv-x="633" unicode="ȏ"/><glyph d="M605 269c0-54-12-102-36-143-24-42-58-74-101-97C424 6 374-6 317-6S209 6 166 29c-44 23-78 55-102 97-24 41-36 89-36 143q0 82.5 36 144t102 96c43 23 94 34 151 34s107-11 151-34c43-23 77-55 101-96q36-61.5 36-144m-423-2c0-44 13-80 38-107s57-41 97-41c39 0 72 14 97 41s37 63 37 107-12 80-37 107-58 41-97 41c-40 0-72-14-97-41s-38-63-38-107m-17 468h303v-94H165z" horiz-adv-x="633" unicode="ō"/><glyph d="M605 269c0-54-12-102-36-143-24-42-58-74-101-97C424 6 374-6 317-6S209 6 166 29c-44 23-78 55-102 97-24 41-36 89-36 143q0 82.5 36 144t102 96c43 23 94 34 151 34s107-11 151-34c43-23 77-55 101-96q36-61.5 36-144m-423-2c0-44 13-80 38-107s57-41 97-41c39 0 72 14 97 41s37 63 37 107-12 80-37 107-58 41-97 41c-40 0-72-14-97-41s-38-63-38-107m-17 425h278v-90H165m185 284 112-70-150-82-98 27z" horiz-adv-x="633" unicode="ṓ"/><glyph d="M605 269c0-54-12-102-36-143-24-42-58-74-101-97C424 6 374-6 317-6S209 6 166 29c-44 23-78 55-102 97-24 41-36 89-36 143q0 82.5 36 144t102 96c43 23 94 34 151 34s107-11 151-34c43-23 77-55 101-96q36-61.5 36-144m-423-2c0-44 13-80 38-107s57-41 97-41c39 0 72 14 97 41s37 63 37 107-12 80-37 107-58 41-97 41c-40 0-72-14-97-41s-38-63-38-107m-19 425h278v-90H163m82 284 135-125-97-27-151 82z" horiz-adv-x="633" unicode="ṑ"/><glyph d="M420-96c0-21 8-31 24-31 11 0 21 3 30 8l28-88c-32-14-62-21-91-21-33 0-60 9-80 28-21 18-31 44-31 79 0 40 16 79 49 116-7-1-17-1-32-1-57 0-108 12-151 35-44 23-78 55-102 97-24 41-36 89-36 143q0 82.5 36 144t102 96c43 23 94 34 151 34s107-11 151-34c43-23 77-55 101-96q36-61.5 36-144 0-70.5-27-126c-19-38-44-69-77-94-24-23-43-48-58-75s-23-50-23-70M317 119c39 0 72 14 97 41s37 63 37 107-12 80-37 107-58 41-97 41c-40 0-72-14-97-41s-38-63-38-107 13-80 38-107 57-41 97-41" horiz-adv-x="633" unicode="ǫ"/><glyph d="M605 269c0-54-12-102-36-143-24-42-58-74-101-97C424 6 374-6 317-6c-48 0-91 8-128 24L116-89H32l96 141c-32 25-57 56-74 93s-26 78-26 124q0 82.5 36 144t102 96c43 23 94 34 151 34q72 0 129-24l74 108h84l-97-143c31-24 56-54 73-91s25-79 25-124M203 162l173 254c-17 8-36 12-59 12-43 0-78-15-104-44-27-29-40-68-40-117q0-61.5 30-105m258 105c0 42-10 77-31 105L257 118q27-12 60-12c43 0 77 15 104 45 27 29 40 68 40 116" horiz-adv-x="633" unicode="ø"/><glyph d="M605 269c0-54-12-102-36-143-24-42-58-74-101-97C424 6 374-6 317-6c-48 0-91 8-128 24L116-89H32l96 141c-32 25-57 56-74 93s-26 78-26 124q0 82.5 36 144t102 96c43 23 94 34 151 34q72 0 129-24l74 108h84l-97-143c31-24 56-54 73-91s25-79 25-124M203 162l173 254c-17 8-36 12-59 12-43 0-78-15-104-44-27-29-40-68-40-117q0-61.5 30-105m258 105c0 42-10 77-31 105L257 118q27-12 60-12c43 0 77 15 104 45 27 29 40 68 40 116M358 764l136-53-136-110-112 10z" horiz-adv-x="633" unicode="ǿ"/><glyph d="M605 269c0-54-12-102-36-143-24-42-58-74-101-97C424 6 374-6 317-6S209 6 166 29c-44 23-78 55-102 97-24 41-36 89-36 143q0 82.5 36 144t102 96c43 23 94 34 151 34s107-11 151-34c43-23 77-55 101-96q36-61.5 36-144m-423-2c0-44 13-80 38-107s57-41 97-41c39 0 72 14 97 41s37 63 37 107-12 80-37 107-58 41-97 41c-40 0-72-14-97-41s-38-63-38-107m218 333c-15 0-29 3-42 8s-29 12-47 21q-12 7.5-24 12c-8 3-15 5-20 5-10 0-17-3-21-10s-6-18-7-33h-91c0 48 7 85 22 111 14 26 37 39 70 39 15 0 29-2 42-7s29-13 47-22c21-12 35-18 44-18 10 0 17 4 21 11s6 18 7 32h91c0-47-7-84-21-110-15-26-38-39-71-39" horiz-adv-x="633" unicode="õ"/><glyph d="M605 269c0-54-12-102-36-143-24-42-58-74-101-97C424 6 374-6 317-6S209 6 166 29c-44 23-78 55-102 97-24 41-36 89-36 143q0 82.5 36 144t102 96c43 23 94 34 151 34s107-11 151-34c43-23 77-55 101-96q36-61.5 36-144m-423-2c0-44 13-80 38-107s57-41 97-41c39 0 72 14 97 41s37 63 37 107-12 80-37 107-58 41-97 41c-40 0-72-14-97-41s-38-63-38-107m215 332c-16 0-31 2-45 7s-30 11-49 20c-2 1-9 4-20 9-12 5-22 7-29 7-11 0-19-3-24-10s-7-17-7-30h-76c0 41 7 72 21 95q21 33 69 33c16 0 32-2 47-7s31-11 49-20c23-11 39-16 48-16 11 0 18 3 23 10s7 17 7 30h77c0-41-7-73-21-95-15-22-38-33-70-33m-33 318 112-70-150-82-98 27z" horiz-adv-x="633" unicode="ṍ"/><glyph d="M605 269c0-54-12-102-36-143-24-42-58-74-101-97C424 6 374-6 317-6S209 6 166 29c-44 23-78 55-102 97-24 41-36 89-36 143q0 82.5 36 144t102 96c43 23 94 34 151 34s107-11 151-34c43-23 77-55 101-96q36-61.5 36-144m-423-2c0-44 13-80 38-107s57-41 97-41c39 0 72 14 97 41s37 63 37 107-12 80-37 107-58 41-97 41c-40 0-72-14-97-41s-38-63-38-107m200 332c-16 0-31 2-45 7s-30 11-49 20c-2 1-9 4-20 9-12 5-22 7-29 7-11 0-19-3-24-10s-7-17-7-30h-76c0 41 7 72 21 95q21 33 69 33c16 0 32-2 47-7s31-11 49-20c23-11 39-16 48-16 11 0 18 3 23 10s7 17 7 30h77c0-41-7-73-21-95-15-22-38-33-70-33M280 835c0-20-6-37-19-50-13-14-30-21-50-21s-36 7-49 21c-13 13-20 30-20 50 0 21 7 38 20 51s29 20 49 20 37-7 50-20 19-30 19-51m185 0c0-20-6-37-19-50-13-14-30-21-49-21-20 0-37 7-50 21-13 13-20 30-20 50 0 21 7 38 20 51s29 20 50 20c19 0 36-7 49-20s19-30 19-51" horiz-adv-x="633" unicode="ṏ"/><glyph d="M605 269c0-54-12-102-36-143-24-42-58-74-101-97C424 6 374-6 317-6S209 6 166 29c-44 23-78 55-102 97-24 41-36 89-36 143q0 82.5 36 144t102 96c43 23 94 34 151 34s107-11 151-34c43-23 77-55 101-96q36-61.5 36-144m-423-2c0-44 13-80 38-107s57-41 97-41c39 0 72 14 97 41s37 63 37 107-12 80-37 107-58 41-97 41c-40 0-72-14-97-41s-38-63-38-107m215 332c-16 0-31 2-45 7s-30 11-49 20c-2 1-9 4-20 9-12 5-22 7-29 7-11 0-19-3-24-10s-7-17-7-30h-76c0 41 7 72 21 95q21 33 69 33c16 0 32-2 47-7s31-11 49-20c23-11 39-16 48-16 11 0 18 3 23 10s7 17 7 30h77c0-41-7-73-21-95-15-22-38-33-70-33M179 857h278v-90H179z" horiz-adv-x="633" unicode="ȭ"/><glyph d="M998 234H597c7-38 23-67 49-88 25-21 57-32 94-32q79.5 0 138 57l81-82c-28-31-62-54-101-70C819 2 775-6 727-6c-45 0-85 9-120 26s-62 42-83 73c-23-31-51-56-86-73S362-6 317-6C260-6 209 6 166 29c-44 23-78 55-102 97-24 41-36 89-36 143q0 82.5 36 144t102 96c43 23 94 34 151 34 46 0 87-9 122-26s63-42 86-73c21 31 49 56 83 73 33 17 72 26 115 26 58 0 108-13 151-38 42-26 74-62 96-109 21-47 31-101 28-162m-153 78c-1 35-12 65-34 88-23 23-51 34-86 34-34 0-62-11-85-33-23-23-38-52-44-89m-145-45c0 44-12 80-37 107s-58 41-97 41c-40 0-72-14-97-41s-37-63-37-107 12-80 37-107 57-41 97-41c39 0 72 14 97 41s37 63 37 107" horiz-adv-x="1026" unicode="œ"/><glyph d="M656 266c0-54-10-101-31-142q-31.5-61.5-87-96C500 5 456-6 406-6c-37 0-70 7-99 22-29 14-54 35-74 62v-272H79v732h154v-79c19 27 44 48 73 63 29 14 61 21 97 21 50 0 94-11 133-34 38-23 68-56 89-98s31-90 31-145m-156 5c0 43-12 79-37 107-25 27-57 41-96 41s-71-14-96-41c-25-28-38-64-38-107 0-45 13-81 38-108s57-41 96-41q58.5 0 96 42c25 27 37 63 37 107" horiz-adv-x="684" unicode="p"/><glyph d="M403 543c50 0 94-11 133-34 38-23 68-56 89-98s31-90 31-145c0-54-10-101-31-142q-31.5-61.5-87-96C500 5 456-6 406-6c-37 0-71 7-100 22-29 14-54 34-73 61v-271H79v936h154V461c19 27 43 47 72 61s61 21 98 21M233 271c0-45 13-81 38-108s57-41 96-41q58.5 0 96 42c25 27 37 63 37 107 0 43-12 79-37 107-25 27-57 41-96 41s-71-14-96-41c-25-28-38-64-38-107" horiz-adv-x="684" unicode="þ"/><glyph d="M605 538v-732H452V79q-28.5-42-72-63C351 1 319-6 282-6c-51 0-95 12-133 35-39 23-68 55-89 97s-32 90-32 145c0 54 10 102 31 143s50 73 88 96 82 34 131 34c76 0 134-28 174-85v79m0-271c0 44-12 80-37 108-25 27-58 41-97 41-40 0-72-14-97-41q-37.5-42-39-108c1-44 14-80 39-107 25-28 57-42 97-42 39 0 72 14 97 42 25 27 37 63 37 107" horiz-adv-x="685" unicode="q"/><glyph d="M406 544V399c-5 1-13 1-24 1-47 0-85-13-112-38-28-26-42-60-42-103V0H74v538h154v-97c19 33 43 59 73 76q45 25.5 105 27" horiz-adv-x="416" unicode="r"/><glyph d="M406 544V399c-5 1-13 1-24 1-47 0-85-13-112-38-28-26-42-60-42-103V0H74v538h154v-97c19 33 43 59 73 76q45 25.5 105 27M275 765l136-53-136-110-112 10z" horiz-adv-x="416" unicode="ŕ"/><glyph d="M406 544V399c-5 1-13 1-24 1-47 0-85-13-112-38-28-26-42-60-42-103V0H74v538h154v-97c19 33 43 59 73 76q45 25.5 105 27M299 759h121L312 611H171L62 759h122l58-65z" horiz-adv-x="416" unicode="ř"/><glyph d="M406 544V399c-5 1-13 1-24 1-47 0-85-13-112-38-28-26-42-60-42-103V0H74v538h154v-97c19 33 43 59 73 76q45 25.5 105 27M85-59h130l-68-170H52z" horiz-adv-x="416" unicode="ŗ"/><glyph d="M406 544V399c-5 1-13 1-24 1-47 0-85-13-112-38-28-26-42-60-42-103V0H74v538h154v-97c19 33 43 59 73 76q45 25.5 105 27M137 769l79-157-109-10-91 120m305 47 80-157-109-10-91 120z" horiz-adv-x="416" unicode="ȑ"/><glyph d="M406 544V399c-5 1-13 1-24 1-47 0-85-13-112-38-28-26-42-60-42-103V0H74v538h154v-97c19 33 43 59 73 76q45 25.5 105 27M233-156c0-25-8-46-23-62-16-16-36-24-61-24-24 0-44 8-59 25-16 16-24 36-24 61s8 46 24 62c15 16 35 24 59 24 25 0 45-8 61-24 15-16 23-37 23-62" horiz-adv-x="416" unicode="ṛ"/><glyph d="M406 544V399c-5 1-13 1-24 1-47 0-85-13-112-38-28-26-42-60-42-103V0H74v538h154v-97c19 33 43 59 73 76q45 25.5 105 27M85 603c1 47 16 84 45 112q43.5 42 111 42c45 0 81-14 110-42s44-65 46-112h-98c-1 17-7 32-18 43s-24 17-40 17-29-6-40-17-17-26-18-43z" horiz-adv-x="416" unicode="ȓ"/><glyph d="M406 544V399c-5 1-13 1-24 1-47 0-85-13-112-38-28-26-42-60-42-103V0H74v538h154v-97c19 33 43 59 73 76q45 25.5 105 27M-2-78h303v-94H-2z" horiz-adv-x="416" unicode="ṟ"/><glyph d="M249 432c-19 0-34-3-45-10s-17-17-17-30c0-15 8-26 23-34q22.5-12 75-27c38-11 69-22 94-33s46-28 64-49c18-22 27-51 27-86 0-53-20-95-61-124C368 9 315-6 251-6c-44 0-86 7-127 20S48 45 18 69l50 104c27-21 58-38 92-49 33-12 65-18 95-18 21 0 37 4 50 11 12 7 18 17 18 31 0 15-8 27-23 36-16 9-41 18-76 28-37 11-67 21-91 32-25 11-46 27-63 49-17 21-26 49-26 84 0 53 20 95 60 124s91 44 152 44c37 0 73-5 110-15 37-11 70-26 100-45l-53-105q-43.5 25.5-87 39c-29 9-54 13-77 13" horiz-adv-x="499" unicode="s"/><glyph d="M249 432c-19 0-34-3-45-10s-17-17-17-30c0-15 8-26 23-34q22.5-12 75-27c38-11 69-22 94-33s46-28 64-49c18-22 27-51 27-86 0-53-20-95-61-124C368 9 315-6 251-6c-44 0-86 7-127 20S48 45 18 69l50 104c27-21 58-38 92-49 33-12 65-18 95-18 21 0 37 4 50 11 12 7 18 17 18 31 0 15-8 27-23 36-16 9-41 18-76 28-37 11-67 21-91 32-25 11-46 27-63 49-17 21-26 49-26 84 0 53 20 95 60 124s91 44 152 44c37 0 73-5 110-15 37-11 70-26 100-45l-53-105q-43.5 25.5-87 39c-29 9-54 13-77 13m43 333 136-53-136-110-112 10z" horiz-adv-x="499" unicode="ś"/><glyph d="M249 432c-19 0-34-3-45-10s-17-17-17-30c0-15 8-26 23-34q22.5-12 75-27c38-11 69-22 94-33s46-28 64-49c18-22 27-51 27-86 0-53-20-95-61-124C368 9 315-6 251-6c-44 0-86 7-127 20S48 45 18 69l50 104c27-21 58-38 92-49 33-12 65-18 95-18 21 0 37 4 50 11 12 7 18 17 18 31 0 15-8 27-23 36-16 9-41 18-76 28-37 11-67 21-91 32-25 11-46 27-63 49-17 21-26 49-26 84 0 53 20 95 60 124s91 44 152 44c37 0 73-5 110-15 37-11 70-26 100-45l-53-105q-43.5 25.5-87 39c-29 9-54 13-77 13m20 320 112-70-150-82-98 27m199 224q0-33-21-54c-15-15-33-22-54-22s-39 7-53 22q-21 21-21 54c0 22 7 40 21 55 14 14 32 21 53 21q31.5 0 54-21c14-14 21-32 21-55" horiz-adv-x="499" unicode="ṥ"/><glyph d="M69 679h152l-20-379H68z" horiz-adv-x="289" unicode="ꞌ"/><glyph d="M249 432c-19 0-34-3-45-10s-17-17-17-30c0-15 8-26 23-34q22.5-12 75-27c38-11 69-22 94-33s46-28 64-49c18-22 27-51 27-86 0-53-20-95-61-124C368 9 315-6 251-6c-44 0-86 7-127 20S48 45 18 69l50 104c27-21 58-38 92-49 33-12 65-18 95-18 21 0 37 4 50 11 12 7 18 17 18 31 0 15-8 27-23 36-16 9-41 18-76 28-37 11-67 21-91 32-25 11-46 27-63 49-17 21-26 49-26 84 0 53 20 95 60 124s91 44 152 44c37 0 73-5 110-15 37-11 70-26 100-45l-53-105q-43.5 25.5-87 39c-29 9-54 13-77 13m67 327h121L329 611H188L79 759h122l58-65z" horiz-adv-x="499" unicode="š"/><glyph d="M249 432c-19 0-34-3-45-10s-17-17-17-30c0-15 8-26 23-34q22.5-12 75-27c38-11 69-22 94-33s46-28 64-49c18-22 27-51 27-86 0-53-20-95-61-124C368 9 315-6 251-6c-44 0-86 7-127 20S48 45 18 69l50 104c27-21 58-38 92-49 33-12 65-18 95-18 21 0 37 4 50 11 12 7 18 17 18 31 0 15-8 27-23 36-16 9-41 18-76 28-37 11-67 21-91 32-25 11-46 27-63 49-17 21-26 49-26 84 0 53 20 95 60 124s91 44 152 44c37 0 73-5 110-15 37-11 70-26 100-45l-53-105q-43.5 25.5-87 39c-29 9-54 13-77 13m84 285h134L356 602H182L70 717h134l64-57m74 170q0-33-21-54c-15-15-33-22-54-22s-39 7-53 22q-21 21-21 54c0 22 7 40 21 55 14 14 32 21 53 21q31.5 0 54-21c14-14 21-32 21-55" horiz-adv-x="499" unicode="ṧ"/><glyph d="M285 331c38-11 69-22 94-33s46-28 64-49c18-22 27-51 27-86 0-45-15-82-46-111S353 5 302-2l-19-52c28-6 49-16 62-30 13-15 20-32 20-51 0-31-12-54-35-70s-53-24-88-24q-51 0-105 21l26 75c18-7 36-10 54-10 12 0 22 2 30 7 7 4 11 9 11 15 0 8-5 14-14 19-9 4-22 6-38 6h-27l30 92c-37 3-71 11-104 24S43 49 18 69l50 104c27-21 58-38 92-49 33-12 65-18 95-18 21 0 37 4 50 11 12 7 18 17 18 31 0 15-8 27-23 36-16 9-41 18-76 28-37 11-67 21-91 32-25 11-46 27-63 49-17 21-26 49-26 84 0 53 20 95 60 124s91 44 152 44c37 0 73-5 110-15 37-11 70-26 100-45l-53-105q-43.5 25.5-87 39c-29 9-54 13-77 13-19 0-34-3-45-10s-17-17-17-30c0-15 8-26 23-34q22.5-12 75-27" horiz-adv-x="499" unicode="ş"/><glyph d="M249 432c-19 0-34-3-45-10s-17-17-17-30c0-15 8-26 23-34q22.5-12 75-27c38-11 69-22 94-33s46-28 64-49c18-22 27-51 27-86 0-53-20-95-61-124C368 9 315-6 251-6c-44 0-86 7-127 20S48 45 18 69l50 104c27-21 58-38 92-49 33-12 65-18 95-18 21 0 37 4 50 11 12 7 18 17 18 31 0 15-8 27-23 36-16 9-41 18-76 28-37 11-67 21-91 32-25 11-46 27-63 49-17 21-26 49-26 84 0 53 20 95 60 124s91 44 152 44c37 0 73-5 110-15 37-11 70-26 100-45l-53-105q-43.5 25.5-87 39c-29 9-54 13-77 13m188 180H315l-57 65-58-65H79l108 148h141z" horiz-adv-x="499" unicode="ŝ"/><glyph d="M249 432c-19 0-34-3-45-10s-17-17-17-30c0-15 8-26 23-34q22.5-12 75-27c38-11 69-22 94-33s46-28 64-49c18-22 27-51 27-86 0-53-20-95-61-124C368 9 315-6 251-6c-44 0-86 7-127 20S48 45 18 69l50 104c27-21 58-38 92-49 33-12 65-18 95-18 21 0 37 4 50 11 12 7 18 17 18 31 0 15-8 27-23 36-16 9-41 18-76 28-37 11-67 21-91 32-25 11-46 27-63 49-17 21-26 49-26 84 0 53 20 95 60 124s91 44 152 44c37 0 73-5 110-15 37-11 70-26 100-45l-53-105q-43.5 25.5-87 39c-29 9-54 13-77 13M183-59h130l-68-170h-95z" horiz-adv-x="499" unicode="ș"/><glyph d="M249 432c-19 0-34-3-45-10s-17-17-17-30c0-15 8-26 23-34q22.5-12 75-27c38-11 69-22 94-33s46-28 64-49c18-22 27-51 27-86 0-53-20-95-61-124C368 9 315-6 251-6c-44 0-86 7-127 20S48 45 18 69l50 104c27-21 58-38 92-49 33-12 65-18 95-18 21 0 37 4 50 11 12 7 18 17 18 31 0 15-8 27-23 36-16 9-41 18-76 28-37 11-67 21-91 32-25 11-46 27-63 49-17 21-26 49-26 84 0 53 20 95 60 124s91 44 152 44c37 0 73-5 110-15 37-11 70-26 100-45l-53-105q-43.5 25.5-87 39c-29 9-54 13-77 13m92 259c0-25-8-46-23-62-16-16-36-24-61-24-24 0-44 8-59 25-16 16-24 36-24 61s8 46 24 62c15 16 35 24 59 24 25 0 45-8 61-24 15-16 23-37 23-62" horiz-adv-x="499" unicode="ṡ"/><glyph d="M249 432c-19 0-34-3-45-10s-17-17-17-30c0-15 8-26 23-34q22.5-12 75-27c38-11 69-22 94-33s46-28 64-49c18-22 27-51 27-86 0-53-20-95-61-124C368 9 315-6 251-6c-44 0-86 7-127 20S48 45 18 69l50 104c27-21 58-38 92-49 33-12 65-18 95-18 21 0 37 4 50 11 12 7 18 17 18 31 0 15-8 27-23 36-16 9-41 18-76 28-37 11-67 21-91 32-25 11-46 27-63 49-17 21-26 49-26 84 0 53 20 95 60 124s91 44 152 44c37 0 73-5 110-15 37-11 70-26 100-45l-53-105q-43.5 25.5-87 39c-29 9-54 13-77 13m82-588c0-25-8-46-23-62-16-16-36-24-61-24-24 0-44 8-59 25-16 16-24 36-24 61s8 46 24 62c15 16 35 24 59 24 25 0 45-8 61-24 15-16 23-37 23-62" horiz-adv-x="499" unicode="ṣ"/><glyph d="M249 432c-19 0-34-3-45-10s-17-17-17-30c0-15 8-26 23-34q22.5-12 75-27c38-11 69-22 94-33s46-28 64-49c18-22 27-51 27-86 0-53-20-95-61-124C368 9 315-6 251-6c-44 0-86 7-127 20S48 45 18 69l50 104c27-21 58-38 92-49 33-12 65-18 95-18 21 0 37 4 50 11 12 7 18 17 18 31 0 15-8 27-23 36-16 9-41 18-76 28-37 11-67 21-91 32-25 11-46 27-63 49-17 21-26 49-26 84 0 53 20 95 60 124s91 44 152 44c37 0 73-5 110-15 37-11 70-26 100-45l-53-105q-43.5 25.5-87 39c-29 9-54 13-77 13m82-588c0-25-8-46-23-62-16-16-36-24-61-24-24 0-44 8-59 25-16 16-24 36-24 61s8 46 24 62c15 16 35 24 59 24 25 0 45-8 61-24 15-16 23-37 23-62m0 847c0-25-8-46-23-62-16-16-36-24-61-24-24 0-44 8-59 25-16 16-24 36-24 61s8 46 24 62c15 16 35 24 59 24 25 0 45-8 61-24 15-16 23-37 23-62" horiz-adv-x="499" unicode="ṩ"/><glyph d="M330 749c49 0 93-8 131-24 37-17 67-40 88-70s31-65 31-104c0-36-9-69-28-100s-44-53-75-68c44-11 79-32 106-61 26-30 39-66 39-109q0-63-33-111-34.5-48-96-75T349 0h-50v114h47q58.5 0 93 27 33 27 33 72c0 31-12 55-37 72s-60 25-105 25h-17v113c37 0 66 9 87 28 21 18 31 44 31 77q0 48-27 75c-18 17-43 26-74 26-35 0-63-11-82-33-20-23-30-54-30-94V0H65v491c0 52 11 98 32 137s52 69 92 90 87 31 141 31" horiz-adv-x="660" unicode="ß"/><glyph d="M407 30q-30-18-66-27c-25-7-49-10-74-10-50 0-91 14-122 43s-47 70-47 123v249H23v106h75v148h153V514h146V407H251V185c0-41 16-62 49-62 23 0 48 7 75 20z" horiz-adv-x="426" unicode="t"/><glyph d="M407 30q-30-18-66-27c-25-7-49-10-74-10-50 0-91 14-122 43s-47 70-47 123v84H23v96h75v79H23v96h75v148h153V514h146v-96H251v-79h146v-96H251v-58c0-41 16-62 49-62 23 0 48 7 75 20z" horiz-adv-x="426" unicode="ŧ"/><glyph d="M407 30q-30-18-66-27c-25-7-49-10-74-10-50 0-91 14-122 43s-47 70-47 123v249H23v106h75v148h153V514h146V407H251V185c0-41 16-62 49-62 23 0 48 7 75 20m-67 599h122l-27-172h-95z" horiz-adv-x="426" unicode="ť"/><glyph d="M382-135c0-31-12-54-35-70s-53-24-88-24q-51 0-105 21l26 75c18-7 36-10 54-10 12 0 22 2 30 7 7 4 11 9 11 15 0 8-5 14-14 19-9 4-22 6-38 6h-27l30 93c-39 7-70 25-93 52s-35 64-35 110v249H23v106h75v148h153V514h146V407H251V185c0-41 16-62 49-62 23 0 48 7 75 20l32-113c-27-15-56-26-88-32l-19-52c28-6 49-16 62-30 13-15 20-32 20-51" horiz-adv-x="426" unicode="ţ"/><glyph d="M407 30q-30-18-66-27c-25-7-49-10-74-10-50 0-91 14-122 43s-47 70-47 123v249H23v106h75v148h153V514h146V407H251V185c0-41 16-62 49-62 23 0 48 7 75 20M200-59h130l-68-170h-95z" horiz-adv-x="426" unicode="ț"/><glyph d="M407 30q-30-18-66-27c-25-7-49-10-74-10-50 0-91 14-122 43s-47 70-47 123v249H23v106h75v148h153V514h146V407H251V185c0-41 16-62 49-62 23 0 48 7 75 20M151 810c0-21-7-38-20-51s-30-20-50-20c-21 0-37 7-50 20s-20 30-20 51 7 39 20 52 29 20 50 20c20 0 37-7 50-20 13-14 20-31 20-52m186 0c0-21-6-38-19-51s-30-20-51-20c-20 0-37 7-50 20s-20 30-20 51 7 38 20 52c13 13 30 20 50 20 21 0 38-7 51-20s19-31 19-52" horiz-adv-x="426" unicode="ẗ"/><glyph d="M407 30q-30-18-66-27c-25-7-49-10-74-10-50 0-91 14-122 43s-47 70-47 123v249H23v106h75v148h153V514h146V407H251V185c0-41 16-62 49-62 23 0 48 7 75 20m-27-299c0-25-8-46-23-62-16-16-36-24-61-24-24 0-44 8-59 25-16 16-24 36-24 61s8 46 24 62c15 16 35 24 59 24 25 0 45-8 61-24 15-16 23-37 23-62" horiz-adv-x="426" unicode="ṭ"/><glyph d="M407 30q-30-18-66-27c-25-7-49-10-74-10-50 0-91 14-122 43s-47 70-47 123v249H23v106h75v148h153V514h146V407H251V185c0-41 16-62 49-62 23 0 48 7 75 20M113-78h303v-94H113z" horiz-adv-x="426" unicode="ṯ"/><glyph d="M585 538V0H432v95C395 28 335-6 252-6c-59 0-106 19-141 56s-53 87-53 150v338h154V244c0-34 9-61 27-80s43-29 74-29q55.5 1.5 87 39c21 25 32 58 32 98v266z" horiz-adv-x="660" unicode="u"/><glyph d="M585 538V0H432v95C395 28 335-6 252-6c-59 0-106 19-141 56s-53 87-53 150v338h154V244c0-34 9-61 27-80s43-29 74-29q55.5 1.5 87 39c21 25 32 58 32 98v266m-68 227 136-53-136-110-112 10z" horiz-adv-x="660" unicode="ú"/><glyph d="M585 538V0H432v95C395 28 335-6 252-6c-59 0-106 19-141 56s-53 87-53 150v338h154V244c0-34 9-61 27-80s43-29 74-29q55.5 1.5 87 39c21 25 32 58 32 98v266M330 697c16 0 29 6 40 17s17 25 18 43h98c-2-47-17-84-46-112s-65-42-110-42q-67.5 0-111 42c-29 28-44 65-45 112h98c1-18 7-32 18-43s24-17 40-17" horiz-adv-x="660" unicode="ŭ"/><glyph d="M585 538V0H432v95C395 28 335-6 252-6c-59 0-106 19-141 56s-53 87-53 150v338h154V244c0-34 9-61 27-80s43-29 74-29q55.5 1.5 87 39c21 25 32 58 32 98v266m77 74H387l-57 65-58-65H151l108 148h141z" horiz-adv-x="660" unicode="û"/><glyph d="M585 538V0H432v95C395 28 335-6 252-6c-59 0-106 19-141 56s-53 87-53 150v338h154V244c0-34 9-61 27-80s43-29 74-29q55.5 1.5 87 39c21 25 32 58 32 98v266M226 769l79-157-109-10-91 120m305 47 80-157-109-10-91 120z" horiz-adv-x="660" unicode="ȕ"/><glyph d="M585 538V0H432v95C395 28 335-6 252-6c-59 0-106 19-141 56s-53 87-53 150v338h154V244c0-34 9-61 27-80s43-29 74-29q55.5 1.5 87 39c21 25 32 58 32 98v266M307 686c0-21-7-38-20-51s-30-20-50-20c-21 0-37 7-50 20s-20 30-20 51 7 39 20 52 29 20 50 20c20 0 37-7 50-20 13-14 20-31 20-52m186 0c0-21-6-38-19-51s-30-20-51-20c-20 0-37 7-50 20s-20 30-20 51 7 38 20 52c13 13 30 20 50 20 21 0 38-7 51-20s19-31 19-52" horiz-adv-x="660" unicode="ü"/><glyph d="M585 538V0H432v95C395 28 335-6 252-6c-59 0-106 19-141 56s-53 87-53 150v338h154V244c0-34 9-61 27-80s43-29 74-29q55.5 1.5 87 39c21 25 32 58 32 98v266m-19-694c0-25-8-46-23-62-16-16-36-24-61-24-24 0-44 8-59 25-16 16-24 36-24 61s8 46 24 62c15 16 35 24 59 24 25 0 45-8 61-24 15-16 23-37 23-62" horiz-adv-x="660" unicode="ụ"/><glyph d="M585 538V0H432v95C395 28 335-6 252-6c-59 0-106 19-141 56s-53 87-53 150v338h154V244c0-34 9-61 27-80s43-29 74-29q55.5 1.5 87 39c21 25 32 58 32 98v266M295 765l104-153-112-10-128 110z" horiz-adv-x="660" unicode="ù"/><glyph d="M585 538V0H432v95C395 28 335-6 252-6c-59 0-106 19-141 56s-53 87-53 150v338h154V244c0-34 9-61 27-80s43-29 74-29q55.5 1.5 87 39c21 25 32 58 32 98v266m10 178c0-22-7-45-22-68-15-24-36-46-61-67l-72 31c13 13 24 26 32 40 7 14 11 27 11 38 0 8-3 14-8 19s-12 7-20 7c-12 0-24-4-37-13l-42 68c35 23 72 35 111 35 33 0 59-8 79-24 19-16 29-38 29-66" horiz-adv-x="660" unicode="ủ"/><glyph d="M693 589q0-49.5-27-81c-19-22-46-38-81-47V0H432v95C395 28 335-6 252-6c-59 0-106 19-141 56s-53 87-53 150v338h154V244c0-34 9-61 27-80s43-29 74-29q55.5 1.5 87 39c21 25 32 58 32 98v266h83c21 0 36 5 47 14 10 9 15 22 15 37 0 17-5 34-16 52l111 42c14-35 21-66 21-94" horiz-adv-x="676" unicode="ư"/><glyph d="M693 589q0-49.5-27-81c-19-22-46-38-81-47V0H432v95C395 28 335-6 252-6c-59 0-106 19-141 56s-53 87-53 150v338h154V244c0-34 9-61 27-80s43-29 74-29q55.5 1.5 87 39c21 25 32 58 32 98v266h83c21 0 36 5 47 14 10 9 15 22 15 37 0 17-5 34-16 52l111 42c14-35 21-66 21-94M364 765l136-53-136-110-112 10z" horiz-adv-x="676" unicode="ứ"/><glyph d="M693 589q0-49.5-27-81c-19-22-46-38-81-47V0H432v95C395 28 335-6 252-6c-59 0-106 19-141 56s-53 87-53 150v338h154V244c0-34 9-61 27-80s43-29 74-29q55.5 1.5 87 39c21 25 32 58 32 98v266h83c21 0 36 5 47 14 10 9 15 22 15 37 0 17-5 34-16 52l111 42c14-35 21-66 21-94M413-156c0-25-8-46-23-62-16-16-36-24-61-24-24 0-44 8-59 25-16 16-24 36-24 61s8 46 24 62c15 16 35 24 59 24 25 0 45-8 61-24 15-16 23-37 23-62" horiz-adv-x="676" unicode="ự"/><glyph d="M693 589q0-49.5-27-81c-19-22-46-38-81-47V0H432v95C395 28 335-6 252-6c-59 0-106 19-141 56s-53 87-53 150v338h154V244c0-34 9-61 27-80s43-29 74-29q55.5 1.5 87 39c21 25 32 58 32 98v266h83c21 0 36 5 47 14 10 9 15 22 15 37 0 17-5 34-16 52l111 42c14-35 21-66 21-94M296 765l104-153-112-10-128 110z" horiz-adv-x="676" unicode="ừ"/><glyph d="M693 589q0-49.5-27-81c-19-22-46-38-81-47V0H432v95C395 28 335-6 252-6c-59 0-106 19-141 56s-53 87-53 150v338h154V244c0-34 9-61 27-80s43-29 74-29q55.5 1.5 87 39c21 25 32 58 32 98v266h83c21 0 36 5 47 14 10 9 15 22 15 37 0 17-5 34-16 52l111 42c14-35 21-66 21-94M442 716c0-22-7-45-22-68-15-24-36-46-61-67l-72 31c13 13 24 26 32 40 7 14 11 27 11 38 0 8-3 14-8 19s-12 7-20 7c-12 0-24-4-37-13l-42 68c35 23 72 35 111 35 33 0 59-8 79-24 19-16 29-38 29-66" horiz-adv-x="676" unicode="ử"/><glyph d="M693 589q0-49.5-27-81c-19-22-46-38-81-47V0H432v95C395 28 335-6 252-6c-59 0-106 19-141 56s-53 87-53 150v338h154V244c0-34 9-61 27-80s43-29 74-29q55.5 1.5 87 39c21 25 32 58 32 98v266h83c21 0 36 5 47 14 10 9 15 22 15 37 0 17-5 34-16 52l111 42c14-35 21-66 21-94m-280 11c-15 0-29 3-42 8s-29 12-47 21q-12 7.5-24 12c-8 3-15 5-20 5-10 0-17-3-21-10s-6-18-7-33h-91c0 48 7 85 22 111 14 26 37 39 70 39 15 0 29-2 42-7s29-13 47-22c21-12 35-18 44-18 10 0 17 4 21 11s6 18 7 32h91c0-47-7-84-21-110-15-26-38-39-71-39" horiz-adv-x="676" unicode="ữ"/><glyph d="M585 538V0H432v95C395 28 335-6 252-6c-59 0-106 19-141 56s-53 87-53 150v338h154V244c0-34 9-61 27-80s43-29 74-29q55.5 1.5 87 39c21 25 32 58 32 98v266M245 769l121-47-91-120-110 10m265 157 120-47-91-120-109 10z" horiz-adv-x="660" unicode="ű"/><glyph d="M585 538V0H432v95C395 28 335-6 252-6c-59 0-106 19-141 56s-53 87-53 150v338h154V244c0-34 9-61 27-80s43-29 74-29q55.5 1.5 87 39c21 25 32 58 32 98v266m-258 65c1 47 16 84 45 112q43.5 42 111 42c45 0 81-14 110-42s44-65 46-112h-98c-1 17-7 32-18 43s-24 17-40 17-29-6-40-17-17-26-18-43z" horiz-adv-x="660" unicode="ȗ"/><glyph d="M585 538V0H432v95C395 28 335-6 252-6c-59 0-106 19-141 56s-53 87-53 150v338h154V244c0-34 9-61 27-80s43-29 74-29q55.5 1.5 87 39c21 25 32 58 32 98v266M178 735h303v-94H178z" horiz-adv-x="660" unicode="ū"/><glyph d="M585 538V0H432v95C395 28 335-6 252-6c-59 0-106 19-141 56s-53 87-53 150v338h154V244c0-34 9-61 27-80s43-29 74-29q55.5 1.5 87 39c21 25 32 58 32 98v266M161 692h278v-90H161m116 202c0-20-6-37-19-50-13-14-30-21-50-21s-36 7-49 21c-13 13-20 30-20 50 0 21 7 38 20 51s29 20 49 20 37-7 50-20 19-30 19-51m185 0c0-20-6-37-19-50-13-14-30-21-49-21-20 0-37 7-50 21-13 13-20 30-20 50 0 21 7 38 20 51s29 20 50 20c19 0 36-7 49-20s19-30 19-51" horiz-adv-x="660" unicode="ṻ"/><glyph d="M482-100q0-27 24-27c11 0 21 3 30 8l29-88q-48-21-93-21c-34 0-61 9-80 27-20 18-30 43-30 74 0 48 23 93 70 135v87C395 28 335-6 252-6c-59 0-106 19-141 56s-53 87-53 150v338h154V244c0-34 9-61 27-80s43-29 74-29q55.5 1.5 87 39c21 25 32 58 32 98v266h153V0h-22c-28-20-48-38-61-53-13-16-20-32-20-47" horiz-adv-x="660" unicode="ų"/><glyph d="M585 538V0H432v95C395 28 335-6 252-6c-59 0-106 19-141 56s-53 87-53 150v338h154V244c0-34 9-61 27-80s43-29 74-29q55.5 1.5 87 39c21 25 32 58 32 98v266m14 157c0-32-11-59-34-82s-50-34-82-34-59 11-82 34-34 50-34 82c0 31 11 58 34 81s50 34 82 34 59-11 82-34 34-50 34-81m-163 0c0-13 5-23 14-32s20-14 33-14 25 5 34 14 13 19 13 32-4 23-13 32-21 13-34 13-24-4-33-13-14-19-14-32" horiz-adv-x="660" unicode="ů"/><glyph d="M585 538V0H432v95C395 28 335-6 252-6c-59 0-106 19-141 56s-53 87-53 150v338h154V244c0-34 9-61 27-80s43-29 74-29q55.5 1.5 87 39c21 25 32 58 32 98v266m-19 62c-15 0-29 3-42 8s-29 12-47 21q-12 7.5-24 12c-8 3-15 5-20 5-10 0-17-3-21-10s-6-18-7-33h-91c0 48 7 85 22 111 14 26 37 39 70 39 15 0 29-2 42-7s29-13 47-22c21-12 35-18 44-18 10 0 17 4 21 11s6 18 7 32h91c0-47-7-84-21-110-15-26-38-39-71-39" horiz-adv-x="660" unicode="ũ"/><glyph d="M585 538V0H432v95C395 28 335-6 252-6c-59 0-106 19-141 56s-53 87-53 150v338h154V244c0-34 9-61 27-80s43-29 74-29q55.5 1.5 87 39c21 25 32 58 32 98v266m-22 61c-16 0-31 2-45 7s-30 11-49 20c-2 1-9 4-20 9-12 5-22 7-29 7-11 0-19-3-24-10s-7-17-7-30h-76c0 41 7 72 21 95q21 33 69 33c16 0 32-2 47-7s31-11 49-20c23-11 39-16 48-16 11 0 18 3 23 10s7 17 7 30h77c0-41-7-73-21-95-15-22-38-33-70-33m-33 318 112-70-150-82-98 27z" horiz-adv-x="660" unicode="ṹ"/><glyph d="m-3 537 159 1 127-392 126 392h153L359 0H201z" horiz-adv-x="556" unicode="v"/><glyph d="m-3 537 157 1 120-385 116 385h151l118-385 118 385h152L733 0H579L463 355 348 0H194z" horiz-adv-x="923" unicode="w"/><glyph d="m-3 537 157 1 120-385 116 385h151l118-385 118 385h152L733 0H579L463 355 348 0H194m304 765 136-53-136-110-112 10z" horiz-adv-x="923" unicode="ẃ"/><glyph d="m-3 537 157 1 120-385 116 385h151l118-385 118 385h152L733 0H579L463 355 348 0H194m449 612H521l-57 65-58-65H285l108 148h141z" horiz-adv-x="923" unicode="ŵ"/><glyph d="m-3 537 157 1 120-385 116 385h151l118-385 118 385h152L733 0H579L463 355 348 0H194m247 686c0-21-7-38-20-51s-30-20-50-20c-21 0-37 7-50 20s-20 30-20 51 7 39 20 52 29 20 50 20c20 0 37-7 50-20 13-14 20-31 20-52m186 0c0-21-6-38-19-51s-30-20-51-20c-20 0-37 7-50 20s-20 30-20 51 7 38 20 52c13 13 30 20 50 20 21 0 38-7 51-20s19-31 19-52" horiz-adv-x="923" unicode="ẅ"/><glyph d="m-3 537 157 1 120-385 116 385h151l118-385 118 385h152L733 0H579L463 355 348 0H194m235 765 104-153-112-10-128 110z" horiz-adv-x="923" unicode="ẁ"/><glyph d="M20 538h176l99-163 105 163h168L397 276 580 0H403L295 176 177 0H7l186 275z" horiz-adv-x="589" unicode="x"/><glyph d="M138-201c-29 0-55 4-78 13-23 8-46 21-68 39L57-38c23-19 47-29 70-29 33 0 56 16 71 48l15 30-223 527h159l141-370 127 370h154L335-60c-37-94-103-141-197-141" horiz-adv-x="564" unicode="y"/><glyph d="M138-201c-29 0-55 4-78 13-23 8-46 21-68 39L57-38c23-19 47-29 70-29 33 0 56 16 71 48l15 30-223 527h159l141-370 127 370h154L335-60c-37-94-103-141-197-141m180 966 136-53-136-110-112 10z" horiz-adv-x="564" unicode="ý"/><glyph d="M138-201c-29 0-55 4-78 13-23 8-46 21-68 39L57-38c23-19 47-29 70-29 33 0 56 16 71 48l15 30-223 527h159l141-370 127 370h154L335-60c-37-94-103-141-197-141m325 813H341l-57 65-58-65H105l108 148h141z" horiz-adv-x="564" unicode="ŷ"/><glyph d="M138-201c-29 0-55 4-78 13-23 8-46 21-68 39L57-38c23-19 47-29 70-29 33 0 56 16 71 48l15 30-223 527h159l141-370 127 370h154L335-60c-37-94-103-141-197-141m123 887c0-21-7-38-20-51s-30-20-50-20c-21 0-37 7-50 20s-20 30-20 51 7 39 20 52 29 20 50 20c20 0 37-7 50-20 13-14 20-31 20-52m186 0c0-21-6-38-19-51s-30-20-51-20c-20 0-37 7-50 20s-20 30-20 51 7 38 20 52c13 13 30 20 50 20 21 0 38-7 51-20s19-31 19-52" horiz-adv-x="564" unicode="ÿ"/><glyph d="M138-201c-29 0-55 4-78 13-23 8-46 21-68 39L57-38c23-19 47-29 70-29 33 0 56 16 71 48l15 30-223 527h159l141-370 127 370h154L335-60c-37-94-103-141-197-141m229 892c0-25-8-46-23-62-16-16-36-24-61-24-24 0-44 8-59 25-16 16-24 36-24 61s8 46 24 62c15 16 35 24 59 24 25 0 45-8 61-24 15-16 23-37 23-62" horiz-adv-x="564" unicode="ẏ"/><glyph d="M138-201c-29 0-55 4-78 13-23 8-46 21-68 39L57-38c23-19 47-29 70-29 33 0 56 16 71 48l15 30-223 527h159l141-370 127 370h154L335-60c-37-94-103-141-197-141m400 45c0-25-8-46-23-62-16-16-36-24-61-24-24 0-44 8-59 25-16 16-24 36-24 61s8 46 24 62c15 16 35 24 59 24 25 0 45-8 61-24 15-16 23-37 23-62" horiz-adv-x="564" unicode="ỵ"/><glyph d="M138-201c-29 0-55 4-78 13-23 8-46 21-68 39L57-38c23-19 47-29 70-29 33 0 56 16 71 48l15 30-223 527h159l141-370 127 370h154L335-60c-37-94-103-141-197-141m111 966 104-153-112-10-128 110z" horiz-adv-x="564" unicode="ỳ"/><glyph d="M138-201c-29 0-55 4-78 13-23 8-46 21-68 39L57-38c23-19 47-29 70-29 33 0 56 16 71 48l15 30-223 527h159l141-370 127 370h154L335-60c-37-94-103-141-197-141m258 917c0-22-7-45-22-68-15-24-36-46-61-67l-72 31c13 13 24 26 32 40 7 14 11 27 11 38 0 8-3 14-8 19s-12 7-20 7c-12 0-24-4-37-13l-42 68c35 23 72 35 111 35 33 0 59-8 79-24 19-16 29-38 29-66" horiz-adv-x="564" unicode="ỷ"/><glyph d="M138-201c-29 0-55 4-78 13-23 8-46 21-68 39L57-38c23-19 47-29 70-29 33 0 56 16 71 48l15 30-223 527h159l141-370 127 370h154L335-60c-37-94-103-141-197-141m-6 936h303v-94H132z" horiz-adv-x="564" unicode="ȳ"/><glyph d="M138-201c-29 0-55 4-78 13-23 8-46 21-68 39L57-38c23-19 47-29 70-29 33 0 56 16 71 48l15 30-223 527h159l141-370 127 370h154L335-60c-37-94-103-141-197-141m229 801c-15 0-29 3-42 8s-29 12-47 21q-12 7.5-24 12c-8 3-15 5-20 5-10 0-17-3-21-10s-6-18-7-33h-91c0 48 7 85 22 111 14 26 37 39 70 39 15 0 29-2 42-7s29-13 47-22c21-12 35-18 44-18 10 0 17 4 21 11s6 18 7 32h91c0-47-7-84-21-110-15-26-38-39-71-39" horiz-adv-x="564" unicode="ỹ"/><glyph d="M48 537h459v-97L230 121h286V-1L38 0v97l277 319-267 1z" horiz-adv-x="548" unicode="z"/><glyph d="M48 537h459v-97L230 121h286V-1L38 0v97l277 319-267 1m263 348 136-53-136-110-112 10z" horiz-adv-x="548" unicode="ź"/><glyph d="M48 537h459v-97L230 121h286V-1L38 0v97l277 319-267 1m287 342h121L348 611H207L98 759h122l58-65z" horiz-adv-x="548" unicode="ž"/><glyph d="M48 537h459v-97L230 121h286V-1L38 0v97l277 319-267 1m312 274c0-25-8-46-23-62-16-16-36-24-61-24-24 0-44 8-59 25-16 16-24 36-24 61s8 46 24 62c15 16 35 24 59 24 25 0 45-8 61-24 15-16 23-37 23-62" horiz-adv-x="548" unicode="ż"/><glyph d="M48 537h459v-97L230 121h286V-1L38 0v97l277 319-267 1m312-573c0-25-8-46-23-62-16-16-36-24-61-24-24 0-44 8-59 25-16 16-24 36-24 61s8 46 24 62c15 16 35 24 59 24 25 0 45-8 61-24 15-16 23-37 23-62" horiz-adv-x="548" unicode="ẓ"/><glyph d="M256 559v-45h127V407H256V0H103v407H31v107h72v51c0 39 9 72 27 100 17 27 41 48 71 63 30 14 63 21 100 21 35 0 70-7 106-22l-23-120c-10 4-21 8-32 11s-22 4-32 4c-19 0-34-5-46-16s-18-26-18-47m198-21h154V0H454m160 691c0-25-8-46-23-62-16-16-36-24-61-24-24 0-44 8-59 25-16 16-24 36-24 61s8 46 24 62c15 16 35 24 59 24 25 0 45-8 61-24 15-16 23-37 23-62" horiz-adv-x="682" unicode="ﬁ"/><glyph d="M256 559v-45h127V407H256V0H103v407H31v107h72v51c0 39 9 72 27 100 17 27 41 48 71 63 30 14 63 21 100 21 35 0 70-7 106-22l-23-120c-10 4-21 8-32 11s-22 4-32 4c-19 0-34-5-46-16s-18-26-18-47m223 183h154V0H479z" horiz-adv-x="712" unicode="ﬂ"/><glyph d="M245 458v44c-23-33-59-49-108-49-35 0-62 9-82 28q-30 27-30 72c0 30 11 53 34 70 22 16 54 24 95 24h90v7c0 16-6 28-17 37-11 8-28 12-50 12-31 0-67-8-106-25l-25 71c56 23 108 34 156 34q69 0 108-30c26-21 39-49 38-86l1-209M244 560v36h-68c-34 0-51-12-51-35 0-12 4-21 13-28s20-11 35-11c32 0 56 13 71 38" horiz-adv-x="390" unicode="ª"/><glyph d="M387 619c0-49-17-89-50-119q-49.5-45-132-45c-55 0-98 15-131 45s-50 70-50 119 17 89 50 119 76 45 131 45q82.5 0 132-45c33-30 50-70 50-119m-257-2c0-24 7-43 21-58s32-22 54-22c23 0 41 7 55 22 13 15 20 34 20 58 0 25-7 44-20 59-14 15-32 22-55 22-22 0-40-7-54-22s-21-35-21-59" horiz-adv-x="411" unicode="º"/><glyph d="M464 700 763 0H-3l304 700m-92-580h337L378 535z" horiz-adv-x="759" unicode="Δ"/><glyph d="M653 364q0 57-27 105c-18 32-44 57-77 76s-72 28-117 28c-44 0-83-9-116-28s-59-44-76-76q-27-48-27-105c0-44 12-86 36-125q36-58.5 105-96V0H8v129h194c-40 31-72 70-95 116-23 45-35 92-35 140 0 60 16 115 47 164s75 88 130 116q82.5 42 183 42c68 0 130-14 185-42 55-29 98-67 129-116s47-104 47-165c0-47-12-93-35-139-23-47-55-85-94-116h193V0H512v143c45 25 80 57 105 97 24 39 36 81 36 124" horiz-adv-x="865" unicode="Ω"/><glyph d="M606 538V0H453v95C416 28 356-6 273-6c-13 0-27 1-40 3v-191H79v732h154V244c0-34 9-61 27-80s43-29 74-29q55.5 1.5 87 39c21 25 32 58 32 98v266z" horiz-adv-x="681" unicode="μ"/><glyph d="M584 425V0H457v425H349L302 0H175l46 425h-38c-23 0-41-6-56-19s-22-30-21-50c0-10 2-21 7-34 4-13 9-25 16-36L23 247Q6.5 278.5-4 316c-7 25-10 48-10 69 0 29 8 55 23 78s37 42 64 55 57 20 90 20h553l1-113z" horiz-adv-x="728" unicode="π"/><glyph d="M659 350c0-114-26-202-79-263C527 25 452-6 354-6c-99 0-174 31-227 93-53 61-80 149-80 263 0 115 27 203 80 264s128 92 227 92c98 0 173-31 226-92s79-149 79-264m-450 0c0-81 12-141 35-178 23-38 60-57 110-57q73.5 0 108 57c23 37 35 97 35 178 0 82-12 142-35 179s-59 56-108 56c-50 0-87-19-110-56s-35-97-35-179" horiz-adv-x="705" unicode="0"/><glyph d="M-7 700h299V0H134v566H-7z" horiz-adv-x="393" unicode="1"/><glyph d="M564 132V0H38v109l259 267c23 23 42 46 56 69 13 22 20 41 20 58 0 22-8 39-25 52-17 12-41 18-71 18s-62-8-96-23-67-37-99-64L20 604c92 69 185 103 280 103 47 0 88-7 124-22q54-22.5 84-63c20-27 30-59 30-95 0-35-12-72-35-110q-34.5-57-99-123L243 132z" horiz-adv-x="597" unicode="2"/><glyph d="M559 219c0-44-11-83-34-117-23-35-56-61-98-80C384 3 335-7 278-7c-49 0-97 8-145 23C84 31 43 50 10 75l61 117c29-24 60-42 93-55s67-19 102-19q66 0 102 27c24 17 36 42 36 73q0 46.5-36 72c-24 16-58 24-103 24H152v90l175 169H46l-1 128h479v-95L322 416l36-5c61-8 110-29 147-62 36-33 54-77 54-130" horiz-adv-x="598" unicode="3"/><glyph d="M571 285V158h-96V0H330v158H4v111l214 431h150L167 285h163v155h145V285z" horiz-adv-x="603" unicode="4"/><glyph d="M586 233c0-48-11-90-34-126-23-37-56-65-98-84C411 3 362-7 306-7q-67.5 0-141 24C116 32 72 53 35 78l61 118c29-24 61-43 94-56s66-20 99-20c39 0 70 9 93 28 23 18 34 43 34 74s-11 54-33 71c-23 16-56 24-100 24-25 0-57 0-97-1-41-1-71-3-92-5v389h460V568H240V445h78q79.5 0 141-27c41-18 72-43 94-75s33-69 33-110" horiz-adv-x="623" unicode="5"/><glyph d="M359 583c-59 0-103-18-132-55s-43-89-42-154c18 27 42 48 71 63 29 14 64 21 103 21 69 0 123-20 164-61q60-61.5 60-165c0-49-10-91-31-127s-51-64-89-83S381-7 330-7C269-7 217 7 173 35c-44 27-78 67-101 119-23 51-35 113-35 184q0 111 39 195c25 55 62 98 109 129 47 30 101 45 164 45 37 0 76-5 116-15 39-10 73-24 102-41l-60-112q-31.5 21-69 33c-26 7-52 11-79 11M205 230c-1-30 9-55 30-76 20-21 49-32 88-32 36 0 65 10 86 29s31 47 31 82c0 33-10 60-30 79s-48 29-83 29c-38 0-68-10-90-31s-33-48-32-80" horiz-adv-x="632" unicode="6"/><glyph d="M11 700h549V587L284 0H117l266 568H152l-1-98H11z" horiz-adv-x="582" unicode="7"/><glyph d="M550 520q0-46.5-24-84c-17-26-39-47-67-62 39-15 70-39 93-70s34-67 34-107c0-41-11-77-34-108s-55-54-96-71C414 1 365-7 309-7c-55 0-104 8-145 25-42 16-74 39-97 70-23 30-34 65-34 106 0 40 12 76 36 109 24 32 57 56 98 71-31 17-55 38-72 65q-27 40.5-27 87c0 55 22 99 65 132s102 49 175 49c75 0 134-17 177-50 43-34 65-80 65-137m-350-8c0-27 10-47 29-62s45-23 80-23 62 7 81 22 28 36 28 63-9 49-28 64-46 22-81 22-61-7-80-22-29-37-29-64m-19-301c0-31 11-56 34-73 22-17 53-26 94-26s72 9 95 26 34 41 34 72-11 56-34 73-54 25-95 25-72-8-94-25c-23-17-34-41-34-72" horiz-adv-x="632" unicode="8"/><glyph d="M257 117c58 0 102 19 131 56s43 88 42 154c-37-57-95-85-174-85-68 0-122 21-162 62q-60 61.5-60 165c0 48 10 90 31 126s50 64 88 83 82 29 133 29c60 0 112-14 156-41 44-28 78-68 101-119 23-52 35-113 35-184 0-74-13-139-38-195S478 69 431 39C384 8 329-7 266-7c-37 0-75 5-114 16-39 10-73 24-102 41l59 112c21-15 44-26 70-33q37.5-12 78-12m-80 351c0-33 10-60 30-79s47-29 82-29c38 0 68 11 90 32 21 21 32 47 32 79 0 30-10 56-30 77s-49 31-88 31c-36 0-64-10-85-29s-31-47-31-82" horiz-adv-x="630" unicode="9"/><glyph d="M411 102c0-65-17-117-51-155s-81-57-140-57S114-91 80-53C45-15 28 37 28 102s17 117 52 154c34 37 81 56 140 56s106-19 140-56c34-38 51-89 51-154m-284 0c0-39 8-70 25-92 16-23 39-34 68-34s52 11 69 34c16 22 24 53 24 92s-8 69-25 91-39 33-68 33-52-11-68-33c-17-22-25-52-25-91" horiz-adv-x="439" unicode="₀"/><glyph d="M3 316h190v-416H83v329H3z" horiz-adv-x="253" unicode="₁"/><glyph d="M219 196c0 11-4 20-13 27-9 6-21 9-37 9-17 0-36-5-57-14s-42-22-61-39L9 258q88.5 63 177 63c43 0 79-10 106-30 27-21 41-47 41-80 0-41-27-87-82-138l-91-89h186v-84H22v70l155 157c12 12 22 24 30 37s12 23 12 32" horiz-adv-x="372" unicode="₂"/><glyph d="M339 26c0-40-15-72-45-97-31-25-71-38-121-38-30 0-59 5-88 14S31-73 11-58l45 83c32-35 68-52 108-52 21 0 38 5 50 14q18 13.5 18 39c0 16-6 28-17 37-12 9-29 13-51 13H95v58l100 97H33v79h286v-61L210 144l21-4c33-5 59-18 79-37 19-20 29-46 29-77" horiz-adv-x="364" unicode="₃"/><glyph d="M146 316h104L119 69h95v92h102V69h59v-79h-59v-90H214v90H9v73z" horiz-adv-x="377" unicode="₄"/><glyph d="M365 35c0-44-16-79-47-106-32-27-74-41-127-41-28 0-56 5-85 14S51-77 26-61l40 74c38-29 75-44 111-44 21 0 39 5 52 16 13 10 19 25 19 44 0 15-6 28-18 37s-29 14-50 14c-16 0-35 0-57-1-23-1-43-3-61-5v237h284v-85H162v-72c15 2 28 3 40 3 49 0 89-11 119-33 29-22 44-52 44-89" horiz-adv-x="394" unicode="₅"/><glyph d="M375 33c0-43-15-78-44-104q-43.5-39-117-39c-58 0-104 19-137 56S27 33 27 97c0 66 19 119 56 159q55.5 60 150 60 37.5 0 72-9c23-7 44-15 62-26l-42-77q-37.5 27-90 27c-33 0-59-9-77-26-18-18-27-44-27-77v-6c10 14 24 25 43 34q27 12 63 12c42 0 76-12 101-36 25-25 37-58 37-99m-101 2c0 17-5 31-16 40s-27 14-47 14c-21 0-37-5-49-15-12-11-18-24-18-41 0-16 6-29 17-39 11-11 27-16 48-16q31.5 0 48 15c11 9 17 23 17 42" horiz-adv-x="405" unicode="₆"/><glyph d="M7 316h337v-75L183-100H67l157 332H103v-60H7z" horiz-adv-x="343" unicode="₇"/><glyph d="M360 203q0-25.5-15-48c-10-15-23-28-40-38 23-9 42-23 56-42s21-39 21-62q0-57-48-90t-129-33c-55 0-98 11-130 33-32 21-48 51-48 88 0 23 8 45 23 64q22.5 28.5 60 42c-19 10-33 23-44 39s-17 33-17 51c0 33 14 59 42 79 28 19 66 29 113 29q70.5 0 114-30c28-20 42-47 42-82m-219-6c0-15 6-26 17-33 11-8 26-12 47-12 20 0 36 4 47 12 11 7 16 18 16 33s-5 26-16 35c-11 8-27 12-47 12-21 0-36-4-47-12s-17-20-17-35M130 22c0-17 7-29 20-38s31-14 55-14 42 5 55 14 19 21 19 38-6 30-19 39-32 13-56 13c-23 0-41-4-54-13s-20-22-20-39" horiz-adv-x="410" unicode="₈"/><glyph d="M378 109c0-66-19-119-56-159q-55.5-60-150-60c-25 0-49 3-72 10-23 6-44 14-62 25L80 2q37.5-27 90-27c33 0 59 9 77 27 18 17 27 43 27 76v6q-15-21-42-33c-19-9-40-13-64-13-42 0-75 12-100 37-25 24-38 57-38 98 0 43 15 78 44 104q43.5 39 117 39c58 0 104-18 137-55s50-88 50-152m-117 64c0 16-5 29-16 40-11 10-28 15-49 15s-37-5-48-14c-11-10-17-24-17-43 0-17 6-31 17-40s26-14 46-14c21 0 37 5 49 16 12 10 18 23 18 40" horiz-adv-x="405" unicode="₉"/><glyph d="M411 564c0-65-17-117-51-155s-81-57-140-57-106 19-140 57c-35 38-52 90-52 155s17 117 52 154c34 37 81 56 140 56s106-19 140-56c34-38 51-89 51-154m-284 0c0-39 8-70 25-92 16-23 39-34 68-34s52 11 69 34c16 22 24 53 24 92s-8 69-25 91-39 33-68 33-52-11-68-33c-17-22-25-52-25-91" horiz-adv-x="439" unicode="⁰"/><glyph d="M3 776h190V360H83v329H3z" horiz-adv-x="253" unicode="¹"/><glyph d="M219 656c0 11-4 20-13 27-9 6-21 9-37 9-17 0-36-5-57-14s-42-22-61-39L9 718q88.5 63 177 63c43 0 79-10 106-30 27-21 41-47 41-80 0-41-27-87-82-138l-91-89h186v-84H22v70l155 157c12 12 22 24 30 37s12 23 12 32" horiz-adv-x="372" unicode="²"/><glyph d="M339 490c0-40-15-72-45-97-31-25-71-38-121-38-30 0-59 5-88 14s-54 22-74 37l45 83c32-35 68-52 108-52 21 0 38 5 50 14q18 13.5 18 39c0 16-6 28-17 37-12 9-29 13-51 13H95v58l100 97H33v79h286v-61L210 608l21-4c33-5 59-18 79-37 19-20 29-46 29-77" horiz-adv-x="364" unicode="³"/><glyph d="M146 776h104L119 529h95v92h102v-92h59v-79h-59v-90H214v90H9v73z" horiz-adv-x="377" unicode="⁴"/><glyph d="M365 499c0-44-16-79-47-106-32-27-74-41-127-41-28 0-56 5-85 14s-55 21-80 37l40 74c38-29 75-44 111-44 21 0 39 5 52 16 13 10 19 25 19 44 0 15-6 28-18 37s-29 14-50 14c-16 0-35 0-57-1-23-1-43-3-61-5v237h284v-85H162v-72c15 2 28 3 40 3 49 0 89-11 119-33 29-22 44-52 44-89" horiz-adv-x="394" unicode="⁵"/><glyph d="M375 498c0-43-15-78-44-104q-43.5-39-117-39c-58 0-104 19-137 56s-50 87-50 151c0 66 19 119 56 159q55.5 60 150 60 37.5 0 72-9c23-7 44-15 62-26l-42-77q-37.5 27-90 27c-33 0-59-9-77-26-18-18-27-44-27-77v-6c10 14 24 25 43 34q27 12 63 12c42 0 76-12 101-36 25-25 37-58 37-99m-101 2c0 17-5 31-16 40s-27 14-47 14c-21 0-37-5-49-15-12-11-18-24-18-41 0-16 6-29 17-39 11-11 27-16 48-16q31.5 0 48 15c11 9 17 23 17 42" horiz-adv-x="405" unicode="⁶"/><glyph d="M7 776h337v-75L183 360H67l157 332H103v-60H7z" horiz-adv-x="343" unicode="⁷"/><glyph d="M360 668q0-25.5-15-48c-10-15-23-28-40-38 23-9 42-23 56-42s21-39 21-62q0-57-48-90t-129-33c-55 0-98 11-130 33-32 21-48 51-48 88 0 23 8 45 23 64q22.5 28.5 60 42c-19 10-33 23-44 39s-17 33-17 51c0 33 14 59 42 79 28 19 66 29 113 29q70.5 0 114-30c28-20 42-47 42-82m-219-6c0-15 6-26 17-33 11-8 26-12 47-12 20 0 36 4 47 12 11 7 16 18 16 33s-5 26-16 35c-11 8-27 12-47 12-21 0-36-4-47-12s-17-20-17-35m-11-175c0-17 7-29 20-38s31-14 55-14 42 5 55 14 19 21 19 38-6 30-19 39-32 13-56 13c-23 0-41-4-54-13s-20-22-20-39" horiz-adv-x="410" unicode="⁸"/><glyph d="M378 576c0-66-19-119-56-159q-55.5-60-150-60c-25 0-49 3-72 10-23 6-44 14-62 25l42 77q37.5-27 90-27c33 0 59 9 77 27 18 17 27 43 27 76v6q-15-21-42-33c-19-9-40-13-64-13-42 0-75 12-100 37-25 24-38 57-38 98 0 43 15 78 44 104q43.5 39 117 39c58 0 104-18 137-55s50-88 50-152m-117 64c0 16-5 29-16 40-11 10-28 15-49 15s-37-5-48-14c-11-10-17-24-17-43 0-17 6-31 17-40s26-14 46-14c21 0 37 5 49 16 12 10 18 23 18 40" horiz-adv-x="405" unicode="⁹"/><glyph d="M247 700h110L-147 0h-112z" horiz-adv-x="105" unicode="⁄"/><glyph d="M3 700h190V284H83v329H3m564 87h110L173 0H61m635 296c0 11-4 20-13 27-9 6-21 9-37 9-17 0-36-5-57-14s-42-22-61-39l-42 79q88.5 63 177 63c43 0 79-10 106-30 27-21 41-47 41-80 0-41-27-87-82-138l-91-89h186V0H499v70l155 157c12 12 22 24 30 37s12 23 12 32" horiz-adv-x="849" unicode="½"/><glyph d="M3 700h190V284H83v329H3m564 87h110L173 0H61m775 131c0-40-15-72-45-97C760 9 720-4 670-4c-30 0-59 5-88 14s-54 22-74 37l45 83c32-35 68-52 108-52 21 0 38 5 50 14q18 13.5 18 39c0 16-6 28-17 37-12 9-29 13-51 13h-69v58l100 97H530v79h286v-61L707 249l21-4c33-5 59-18 79-37 19-20 29-46 29-77" horiz-adv-x="896" unicode="⅓"/><glyph d="M219 580c0 11-4 20-13 27-9 6-21 9-37 9-17 0-36-5-57-14s-42-22-61-39L9 642q88.5 63 177 63c43 0 79-10 106-30 27-21 41-47 41-80 0-41-27-87-82-138l-91-89h186v-84H22v70l155 157c12 12 22 24 30 37s12 23 12 32m473 120h110L298 0H186m776 131c0-40-15-72-45-97C886 9 846-4 796-4c-30 0-59 5-88 14s-54 22-74 37l45 83c32-35 68-52 108-52 21 0 38 5 50 14q18 13.5 18 39c0 16-6 28-17 37-12 9-29 13-51 13h-69v58l100 97H656v79h286v-61L833 249l21-4c33-5 59-18 79-37 19-20 29-46 29-77" horiz-adv-x="987" unicode="⅔"/><glyph d="M3 700h190V284H83v329H3m564 87h110L173 0H61m520 416h104L554 169h95v92h102v-92h59V90h-59V0H649v90H444v73z" horiz-adv-x="812" unicode="¼"/><glyph d="M339 415c0-40-15-72-45-97-31-25-71-38-121-38-30 0-59 5-88 14s-54 22-74 37l45 83c32-35 68-52 108-52 21 0 38 5 50 14q18 13.5 18 39c0 16-6 28-17 37-12 9-29 13-51 13H95v58l100 97H33v79h286v-61L210 533l21-4c33-5 59-18 79-37 19-20 29-46 29-77m308 285h110L253 0H141m520 416h104L634 169h95v92h102v-92h59V90h-59V0H729v90H524v73z" horiz-adv-x="892" unicode="¾"/><glyph d="M3 700h190V284H83v329H3m564 87h110L173 0H61m743 308q0-25.5-15-48c-10-15-23-28-40-38 23-9 42-23 56-42s21-39 21-62q0-57-48-90T649-5c-55 0-98 11-130 33-32 21-48 51-48 88 0 23 8 45 23 64q22.5 28.5 60 42c-19 10-33 23-44 39s-17 33-17 51c0 33 14 59 42 79 28 19 66 29 113 29q70.5 0 114-30c28-20 42-47 42-82m-219-6c0-15 6-26 17-33 11-8 26-12 47-12 20 0 36 4 47 12 11 7 16 18 16 33s-5 26-16 35c-11 8-27 12-47 12-21 0-36-4-47-12s-17-20-17-35m-11-175c0-17 7-29 20-38s31-14 55-14 42 5 55 14 19 21 19 38-6 30-19 39-32 13-56 13c-23 0-41-4-54-13s-20-22-20-39" horiz-adv-x="854" unicode="⅛"/><glyph d="M339 415c0-40-15-72-45-97-31-25-71-38-121-38-30 0-59 5-88 14s-54 22-74 37l45 83c32-35 68-52 108-52 21 0 38 5 50 14q18 13.5 18 39c0 16-6 28-17 37-12 9-29 13-51 13H95v58l100 97H33v79h286v-61L210 533l21-4c33-5 59-18 79-37 19-20 29-46 29-77m308 285h110L253 0H141m744 308q0-25.5-15-48c-10-15-23-28-40-38 23-9 42-23 56-42s21-39 21-62q0-57-48-90T730-5c-55 0-98 11-130 33-32 21-48 51-48 88 0 23 8 45 23 64q22.5 28.5 60 42c-19 10-33 23-44 39s-17 33-17 51c0 33 14 59 42 79 28 19 66 29 113 29q70.5 0 114-30c28-20 42-47 42-82m-219-6c0-15 6-26 17-33 11-8 26-12 47-12 20 0 36 4 47 12 11 7 16 18 16 33s-5 26-16 35c-11 8-27 12-47 12-21 0-36-4-47-12s-17-20-17-35m-11-175c0-17 7-29 20-38s31-14 55-14 42 5 55 14 19 21 19 38-6 30-19 39-32 13-56 13c-23 0-41-4-54-13s-20-22-20-39" horiz-adv-x="934" unicode="⅜"/><glyph d="M365 424c0-44-16-79-47-106-32-27-74-41-127-41-28 0-56 5-85 14s-55 21-80 37l40 74c38-29 75-44 111-44 21 0 39 5 52 16 13 10 19 25 19 44 0 15-6 28-18 37s-29 14-50 14c-16 0-35 0-57-1-23-1-43-3-61-5v237h284v-85H162v-72c15 2 29 3 40 3 49 0 89-11 119-33 29-22 44-52 44-89m306 276h110L277 0H165m744 308q0-25.5-15-48c-10-15-23-28-40-38 23-9 42-23 56-42s21-39 21-62q0-57-48-90T754-5c-55 0-98 11-130 33-32 21-48 51-48 88 0 23 8 45 23 64q22.5 28.5 60 42c-19 10-33 23-44 39s-17 33-17 51c0 33 14 59 42 79 28 19 66 29 113 29q70.5 0 114-30c28-20 42-47 42-82m-219-6c0-15 6-26 17-33 11-8 26-12 47-12 20 0 36 4 47 12 11 7 16 18 16 33s-5 26-16 35c-11 8-27 12-47 12-21 0-36-4-47-12s-17-20-17-35m-11-175c0-17 7-29 20-38s31-14 55-14 42 5 55 14 19 21 19 38-6 30-19 39-32 13-56 13c-23 0-41-4-54-13s-20-22-20-39" horiz-adv-x="958" unicode="⅝"/><glyph d="M7 700h337v-75L183 284H67l157 332H103v-60H7m583 144h110L196 0H84m743 308q0-25.5-15-48c-10-15-23-28-40-38 23-9 42-23 56-42s21-39 21-62q0-57-48-90T672-5c-55 0-98 11-130 33-32 21-48 51-48 88 0 23 8 45 23 64q22.5 28.5 60 42c-19 10-33 23-44 39s-17 33-17 51c0 33 14 59 42 79 28 19 66 29 113 29q70.5 0 114-30c28-20 42-47 42-82m-219-6c0-15 6-26 17-33 11-8 26-12 47-12 20 0 36 4 47 12 11 7 16 18 16 33s-5 26-16 35c-11 8-27 12-47 12-21 0-36-4-47-12s-17-20-17-35m-11-175c0-17 7-29 20-38s31-14 55-14 42 5 55 14 19 21 19 38-6 30-19 39-32 13-56 13c-23 0-41-4-54-13s-20-22-20-39" horiz-adv-x="877" unicode="⅞"/><glyph d="M145 720h78l-1-98 84 50 39-70-87-47 87-48-39-70-85 50 2-97h-78l2 98-85-50-39 69 86 48-86 47 39 71 85-51z" horiz-adv-x="368" unicode="*"/><glyph d="m56 812 321-924H248L-74 812z" horiz-adv-x="346" unicode="\"/><glyph d="M198 289c0-25-8-46-23-62-16-16-36-24-61-24-24 0-44 8-59 25-16 16-24 36-24 61s8 46 24 62c15 16 35 24 59 24 25 0 45-8 61-24 15-16 23-37 23-62" horiz-adv-x="232" unicode="·"/><glyph d="M271 274c0-35-11-64-32-86-22-23-50-34-84-34-33 0-61 11-82 34-22 23-33 51-33 86s11 63 33 85c21 22 49 33 82 33q51 0 84-33c21-22 32-50 32-85" horiz-adv-x="312" unicode="•"/><glyph d="M194 368q0-34.5-21-57c-15-15-33-23-56-23-22 0-40 8-55 23s-22 34-22 57 7 42 22 57 33 22 55 22c23 0 41-7 56-22q21-22.5 21-57m0-297q0-34.5-21-57C158-1 140-9 117-9 95-9 77-1 62 14S40 48 40 71s7 42 22 57 33 22 55 22c23 0 41-7 56-22q21-22.5 21-57" horiz-adv-x="235" unicode=":"/><glyph d="M193 71c0-11-2-20-5-29s-8-20-15-33l-71-127H27L74 8Q41 29 41 71c0 23 7 41 22 56s33 22 55 22c21 0 38-7 53-21s22-33 22-57" horiz-adv-x="232" unicode=","/><glyph d="M189 69c0-23-7-41-21-56S136-9 115-9 76-2 62 13C47 28 40 46 40 69s7 41 22 56c14 14 32 21 53 21s39-7 53-21c14-15 21-33 21-56m213 0c0-23-7-41-21-56S349-9 328-9s-39 7-53 22c-15 15-22 33-22 56s7 41 22 56c14 14 32 21 53 21s39-7 53-21c14-15 21-33 21-56m213 0c0-23-7-41-21-56S562-9 541-9s-39 7-53 22c-15 15-22 33-22 56s7 41 22 56c14 14 32 21 53 21s39-7 53-21c14-15 21-33 21-56" horiz-adv-x="656" unicode="…"/><glyph d="M56 695h147V518l-27-282H83L56 518M205 71q0-34.5-21-57C169-1 151-9 128-9c-22 0-40 8-55 23S51 48 51 71s7 42 22 57 33 22 55 22c23 0 41-7 56-22q21-22.5 21-57" horiz-adv-x="240" unicode="!"/><glyph d="M54 466c0 23 7 43 22 58 14 15 32 22 55 22 22 0 40-8 55-23s22-34 22-57-7-42-22-57-33-22-55-22c-23 0-41 7-55 22-15 15-22 34-22 57m149-624H56V19l27 282h93l27-282z" horiz-adv-x="240" unicode="¡"/><glyph d="M701 422H562l-18-151h135l-12-111H530L510 0H399l20 160H267L247 0H135l20 160H19l12 111h138l18 151H52l12 111h137l21 167h111l-21-167h152l21 167h112l-21-167h136M432 271l19 151H299l-19-151z" horiz-adv-x="732" unicode="#"/><glyph d="M194 71q0-34.5-21-57C158-1 140-9 117-9 95-9 77-1 62 14S40 48 40 71s7 42 22 57 33 22 55 22c23 0 41-7 56-22q21-22.5 21-57" horiz-adv-x="235" unicode="."/><glyph d="M243 701c65 0 117-15 155-45 37-30 56-73 56-128 0-25-4-48-13-67s-19-36-31-49c-13-13-29-29-50-47q-40.5-36-60-63c-13-18-20-40-20-66H165c0 27 4 50 12 70 7 19 17 36 28 49s25 28 43 45c21 19 37 36 47 51 10 14 15 32 15 53 0 23-7 41-21 53-14 11-34 17-59 17-57 0-87-31-89-94l-119 1q1.5 103.5 60 162c39 39 93 58 161 58m54-630q0-34.5-21-57C261-1 243-9 220-9c-22 0-40 8-55 23s-22 34-22 57 7 42 22 57 33 22 55 22c23 0 41-7 56-22q21-22.5 21-57" horiz-adv-x="462" unicode="?"/><glyph d="M165 466c0 23 7 43 22 58 14 15 32 22 55 22 22 0 40-8 55-23s22-34 22-57-7-42-22-57-33-22-55-22c-23 0-41 7-55 22-15 15-22 34-22 57m54-630c-65 0-117 15-154 45C27-89 8-46 8 9c0 25 4 48 13 67s19 36 32 49c12 13 28 29 49 47 27 24 48 45 61 63s19 40 19 66h115c0-27-4-50-11-69-8-20-17-36-28-49s-26-29-44-46c-21-19-37-36-47-50q-15-22.5-15-54c0-23 7-41 21-52 14-12 34-18 59-18 57 0 87 31 89 94l119-1q-1.5-103.5-60-162c-39-39-93-58-161-58" horiz-adv-x="462" unicode="¿"/><glyph d="M60 700h116V434H60m178 266h116V434H238z" horiz-adv-x="414" unicode="&quot;"/><glyph d="M60 700h116V434H60z" horiz-adv-x="236" unicode="'"/><glyph d="M194 368q0-34.5-21-57c-15-15-33-23-56-23-22 0-40 8-55 23s-22 34-22 57 7 42 22 57 33 22 55 22c23 0 41-7 56-22q21-22.5 21-57m-1-297c0-11-2-20-5-29s-8-20-15-33l-71-127H27L74 8Q41 29 41 71c0 23 7 41 22 56s33 22 55 22c21 0 38-7 53-21s22-33 22-57" horiz-adv-x="233" unicode=";"/><glyph d="M290 812h130L98-112H-31z" horiz-adv-x="346" unicode="/"/><glyph d="M0-116h577v-88H0z" horiz-adv-x="578" unicode="_"/><glyph d="M147 309c25-10 45-19 58-27q19.5-12 30-33c7-14 10-33 10-58V59c0-25 6-42 19-51 13-10 36-15 71-15v-119h-59c-42 0-75 5-99 14-25 9-42 23-53 43-11 19-17 46-17 80v190q0 25.5-9 36c-6 7-16 11-30 11H32v122h36c14 0 24 4 30 11s9 18 9 35v190c0 34 6 61 17 81 11 19 28 34 53 43 24 9 57 13 99 13h59V624c-35 0-58-5-71-14-13-10-19-27-19-52V426c0-25-3-44-10-58s-17-25-30-32c-13-8-33-17-58-27" horiz-adv-x="356" unicode="{"/><glyph d="M324 370V248h-36c-14 0-24-4-30-11q-9-10.5-9-36V11c0-34-5-61-16-80-11-20-29-34-53-43-25-9-58-14-100-14H21V-7C56-7 79-2 92 8c13 9 19 26 19 51v132c0 25 4 44 11 58q10.5 21 30 33t57 27q-37.5 15-57 27c-13 7-23 18-30 32s-11 33-11 58v132c0 25-6 42-19 52-13 9-36 14-71 14v119h59c42 0 75-4 100-13 24-9 42-24 53-43 11-20 16-47 16-81V416c0-17 3-28 9-35s16-11 30-11z" horiz-adv-x="356" unicode="}"/><glyph d="M72 742h259V623H209V-5h122v-119H72z" horiz-adv-x="347" unicode="["/><glyph d="M275 742v-866H16V-5h122v628H16v119z" horiz-adv-x="347" unicode="]"/><glyph d="M206 309c0-80 11-157 32-232s51-142 88-201H188C147-66 116 0 95 75Q62 186 62 309c0 82 11 160 33 235q31.5 111 93 198h138c-37-59-67-126-88-201s-32-152-32-232" horiz-adv-x="332" unicode="("/><glyph d="M144 742c41-58 72-124 94-198 21-75 32-153 32-235s-11-160-32-234c-22-75-53-141-94-199H6C43-65 73 2 94 77s32 152 32 232-11 157-32 232S43 683 6 742z" horiz-adv-x="332" unicode=")"/><glyph d="M0 357h662V255H0z" horiz-adv-x="662" unicode="—"/><glyph d="M0 357h407V255H0z" horiz-adv-x="407" unicode="–"/><glyph d="M0 357h617V255H0z" horiz-adv-x="617" unicode="‒"/><glyph d="M0 357h662V255H0z" horiz-adv-x="662" unicode="―"/><glyph d="M57 357h258V255H57z" horiz-adv-x="372" unicode="-"/><glyph d="M57 357h258V255H57z" horiz-adv-x="372" unicode="‐"/><glyph d="M57 357h258V255H57z" horiz-adv-x="372" unicode="­"/><glyph d="M128 446h126L147 265 254 83H128L9 265m327 181h126L355 265 462 83H336L217 265z" horiz-adv-x="487" unicode="«"/><glyph d="M151 83H25l107 181L25 446h126l119-182m89-181H233l107 181-107 182h126l119-182z" horiz-adv-x="495" unicode="»"/><glyph d="M128 446h126L147 265 254 83H128L9 265z" horiz-adv-x="279" unicode="‹"/><glyph d="M151 83H25l107 181L25 446h126l119-182z" horiz-adv-x="279" unicode="›"/><glyph d="M193 71c0-11-2-20-5-29s-8-20-15-33l-71-127H27L74 8Q41 29 41 71c0 23 7 41 22 56s33 22 55 22c21 0 38-7 53-21s22-33 22-57m173 0c0-11-2-20-5-29s-8-20-15-33l-71-127h-75L247 8q-33 21-33 63c0 23 7 41 22 56s33 22 55 22c21 0 38-7 53-21s22-33 22-57" horiz-adv-x="405" unicode="„"/><glyph d="M179 553c0-23-7-41-22-56s-33-22-55-22c-21 0-38 7-53 21s-22 33-22 57c0 11 2 21 5 30s8 19 15 32l71 127h75l-47-126q33-21 33-63m173 0c0-23-7-41-22-56s-33-22-55-22c-21 0-38 7-53 21s-22 33-22 57c0 11 2 21 5 30s8 19 15 32l71 127h75l-47-126q33-21 33-63" horiz-adv-x="405" unicode="“"/><glyph d="M193 664c0-11-2-20-5-29s-8-20-15-33l-71-127H27l47 126q-33 21-33 63c0 23 7 41 22 56s33 22 55 22c21 0 38-7 53-21s22-33 22-57m173 0c0-11-2-20-5-29s-8-20-15-33l-71-127h-75l47 126q-33 21-33 63c0 23 7 41 22 56s33 22 55 22c21 0 38-7 53-21s22-33 22-57" horiz-adv-x="405" unicode="”"/><glyph d="M179 553c0-23-7-41-22-56s-33-22-55-22c-21 0-38 7-53 21s-22 33-22 57c0 11 2 21 5 30s8 19 15 32l71 127h75l-47-126q33-21 33-63" horiz-adv-x="232" unicode="‘"/><glyph d="M193 664c0-11-2-20-5-29s-8-20-15-33l-71-127H27l47 126q-33 21-33 63c0 23 7 41 22 56s33 22 55 22c21 0 38-7 53-21s22-33 22-57" horiz-adv-x="232" unicode="’"/><glyph d="M193 71c0-11-2-20-5-29s-8-20-15-33l-71-127H27L74 8Q41 29 41 71c0 23 7 41 22 56s33 22 55 22c21 0 38-7 53-21s22-33 22-57" horiz-adv-x="232" unicode="‚"/><glyph horiz-adv-x="700"/><glyph horiz-adv-x="100"/><glyph horiz-adv-x="235"/><glyph horiz-adv-x="234"/><glyph horiz-adv-x="200"/><glyph horiz-adv-x="0" unicode="​"/><glyph d="M448-7v-143H332V-6c-59 9-111 30-157 63-47 33-83 76-109 127q-39 76.5-39 168 0 90 39 165c26 50 62 92 109 125 46 33 98 54 157 64v139h116V708c43-6 85-19 125-39s74-45 103-75l-92-113c-24 29-52 51-84 68-33 16-65 24-98 24-39 0-75-10-108-29s-58-46-77-79-28-70-28-111 9-78 28-111c19-34 44-61 77-80q49.5-30 108-30c31 0 63 8 96 23 32 15 61 35 86 60l93-101c-31-32-66-59-106-80Q511 3.5 448-7" horiz-adv-x="694" unicode="₵"/><glyph d="M365-1v-149H250V-2C183 9 129 38 89 87c-41 48-61 108-61 180 0 73 20 133 60 182q60 73.5 162 90v156h115V538c37-7 70-19 99-37 29-19 54-42 73-71l-104-75q-46.5 57-120 57c-39 0-70-13-94-39-25-27-37-62-37-105q0-64.5 36-105c24-27 55-41 92-41 56 0 98 21 125 63l106-72c-18-30-42-55-72-74-30-20-65-33-104-40" horiz-adv-x="600" unicode="¢"/><glyph d="m510 9-28-159H377l24 139h-7c-17 0-35 1-53 3l-25-142H211l30 170C176 48 125 92 86 151S27 277 27 352c0 77 22 146 65 207 43 60 101 103 172 129l28 157h105l-24-135c6 1 15 1 27 1 7 0 18-1 33-2l25 136h105l-29-159c56-21 103-51 142-92l-92-113c-24 29-52 51-84 68-33 16-65 24-98 24-39 0-75-10-108-29s-58-46-77-79-28-70-28-111 9-78 28-111c19-34 44-61 77-80q49.5-30 108-30c31 0 63 8 96 23 32 15 61 35 86 60l93-101C630 66 575 31 510 9" horiz-adv-x="694" unicode="₡"/><glyph d="M576 183 677 82 590-8 485 97c-41-23-86-35-133-35s-92 12-133 35L114-8 28 82l101 102c-27 43-40 88-40 137 0 47 12 91 37 133l-98 99 86 90 101-101c41 26 87 39 137 39s96-13 138-38l100 100 87-90-99-99c25-41 38-86 38-133 0-49-13-95-40-138m-80 138c0 24-6 46-19 67s-31 37-53 50q-33 18-72 18c-26 0-50-6-71-18-22-12-39-28-52-49s-19-44-19-68 6-46 19-67 30-37 52-49c21-12 45-18 71-18q39 0 72 18c22 12 40 28 53 49s19 43 19 67" horiz-adv-x="705" unicode="¤"/><glyph d="M372 421c48-14 88-28 119-42s57-35 79-63q33-42 33-111c0-59-20-106-59-143-40-37-93-59-158-67v-145H271V-5c-47 6-93 18-136 37S53 74 20 103l63 129c35-32 76-58 122-77s88-29 126-29c33 0 58 6 77 18 18 12 27 29 27 52q0 27-18 45c-13 11-28 21-47 28s-46 16-79 25c-48 13-87 27-117 40-31 13-57 34-79 61s-33 64-33 109c0 55 19 100 57 137 37 36 88 59 152 68v136h115V710c40-5 78-13 115-26s69-29 98-48l-61-131c-36 22-74 40-114 53-41 13-75 19-104 19-27 0-49-5-65-15s-24-25-24-44c0-25 12-43 35-56s58-27 106-41" horiz-adv-x="637" unicode="$"/><glyph d="M672 586h-67V0H452v79q-28.5-42-72-63C351 1 319-6 282-6c-51 0-95 12-133 35-39 23-68 55-89 97s-32 90-32 145c0 54 10 102 31 143s50 73 88 96 82 34 131 34c76 0 134-28 174-85v127H335v69h117v87h153v-87h67M452 267c0 44-12 80-37 108-25 27-58 41-97 41-40 0-72-14-97-41q-37.5-42-39-108c1-44 14-80 39-107 25-28 57-42 97-42 39 0 72 14 97 42 25 27 37 63 37 107M107-130v68h440v-68z" horiz-adv-x="685" unicode="₫"/><glyph d="m672 219 91-101c-36-38-79-68-130-91S531-7 480-7C423-7 370 4 321 27c-49 22-90 53-124 93-34 39-58 85-71 136H31v64h84c-1 7-1 17-1 31 0 10 0 18 1 23H31v64h93c13 52 36 98 71 139 35 40 77 71 128 94 50 23 105 34 164 34 51 0 101-10 150-31s91-49 126-85l-91-112c-25 28-53 50-86 67-33 16-65 24-97 24-45 0-85-12-120-35-35-24-61-56-77-95h240v-64H277c-1-5-1-12-1-21 0-7 1-18 2-33h254v-64H298c17-36 43-65 77-86q51-33 114-33c31 0 62 7 95 22s62 35 88 60" horiz-adv-x="780" unicode="€"/><glyph d="m274 554-11-89h128l-12-103H250L203-26c-7-53-27-96-62-127-35-32-81-48-136-48-20 0-41 4-63 11q-34.5 10.5-57 27l40 111c9-7 19-13 30-17 11-5 22-7 32-7 19 0 34 7 45 20Q48.5-36.5 53-2l45 364H27l12 103h71l14 112c7 53 29 96 66 128 37 31 83 47 139 47 25 0 51-3 77-10 25-7 47-17 66-28l-53-111c-9 7-20 13-32 18-13 4-24 6-35 6-21 0-38-7-52-20s-23-31-26-53" horiz-adv-x="397" unicode="ƒ"/><glyph d="M594 569H250V396h315V269H250v-98h219v-64H250V0H92v107H15v64h77v529h503z" horiz-adv-x="609" unicode="₣"/><glyph d="M547 353h137V81c-31-22-66-41-106-56C538 9 498-2 458-7v-143H342V-7Q250.5 6.5 180 56c-48 33-85 75-112 126S27 290 27 351c0 60 13 115 40 166s64 93 112 126 102 54 163 63v139h116V708c43-5 85-17 126-34 41-18 76-40 106-67l-89-113c-26 25-56 44-90 58q-51 21-102 21c-41 0-78-10-111-29-34-20-61-47-80-80-19-34-29-72-29-113s10-79 30-113c19-35 46-62 80-81q49.5-30 111-30c21 0 43 4 67 11s47 16 70 28z" horiz-adv-x="728" unicode="₲"/><glyph d="M691 0H503L232 315V0H74v326H-2v64h76v310h158V397l260 303h182L403 390h215v-64H404z" horiz-adv-x="702" unicode="₭"/><glyph d="M268 125h265V0H31v125h78v119H31v64h78v54H31v64h78v50q0 109.5 60 171c40 40 97 60 170 60 40 0 78-7 114-22 35-15 67-37 94-65l-60-120c-44 46-88 69-131 69-29 0-50-8-65-24s-23-40-23-72v-47h170v-64H268v-54h170v-64H268z" horiz-adv-x="557" unicode="₤"/><glyph d="M685 355c0-69-16-130-47-184-32-54-76-96-133-126S384 0 311 0H101v312l-73-21v71l73 21v76l-73-21v72l73 21v169h158V576l270 77v-71l-270-78v-76l270 78v-72l-270-77V133h62c39 0 75 9 106 28q46.5 28.5 72 78c17 33 26 71 26 114z" horiz-adv-x="711" unicode="₺"/><glyph d="M734 267V0H579v266c0 47-12 89-36 124-25 35-57 59-97 72V0H317v462c-41-13-73-37-97-72-25-35-37-77-37-124V0H28v267c0 58 12 111 37 159 24 48 58 88 102 119q66 46.5 150 60v95h129v-95q84-13.5 150-60c43-31 77-71 102-119q36-72 36-159" horiz-adv-x="762" unicode="₼"/><glyph d="M766 374h-83v-54h83v-64h-83V0H543L244 444V0H97v256H14v64h83v54H14v64h83v262h140l300-446v446h146V438h83z" horiz-adv-x="780" unicode="₦"/><glyph d="M616 454c0-81-24-143-72-187-49-45-117-67-204-67H225V0H77v700h263c87 0 155-21 204-64 48-43 72-103 72-182m396-311 32-113c-20-11-42-20-65-27-24-7-48-10-72-10-48 0-87 14-117 43q-45 43.5-45 123v251h-75v104h75v148h143V514h140V410H888V187c0-23 5-39 14-49q13.5-15 39-15c21 0 45 7 71 20M476 452c0 43-13 75-38 97-25 21-62 32-110 32H225V320h103c48 0 85 11 110 34 25 22 38 55 38 98m862-126c36-11 66-23 89-34s44-28 61-50 25-50 25-85c0-51-20-91-59-120s-89-43-150-43q-61.5 0-120 18c-39 11-73 28-102 50l46 96c27-18 56-32 88-42 31-11 61-16 90-16 21 0 39 4 52 12 13 7 19 19 19 35 0 17-8 31-24 41-17 9-42 19-76 30-36 12-65 24-87 35q-33 16.5-57 48c-16 21-24 49-24 83 0 51 19 91 57 119q55.5 42 144 42c73 0 140-18 199-54l-49-100c-55 31-106 47-152 47-21 0-37-4-49-11-12-8-18-20-18-35 0-16 8-28 23-37s40-18 74-29" horiz-adv-x="1542" unicode="₧"/><glyph d="M750 477h-77c1-5 1-11 1-20 0-8-1-19-2-34h78v-64h-91c-17-51-49-91-94-118s-103-41-172-41H255V0H97v359H20v64h77v54H20v64h77v159h296c71 0 130-14 176-41s77-67 93-118h88m-227-89c0 39-12 68-35 88-24 19-58 29-102 29H255V332h131c44 0 78 10 102 31 23 20 35 50 35 89" horiz-adv-x="766" unicode="₱"/><glyph d="M253 222v-64h232V94H253V0H95v94H15v64h80v542h296c89 0 159-20 208-61s73-99 73-174c0-77-24-137-73-179-49-43-119-64-208-64m-7 353H253V347h131q67.5 0 102 30c23 19 35 48 35 86 0 37-12 65-35 84s-57 28-102 28" horiz-adv-x="693" unicode="₽"/><glyph d="M461 577c20-27 33-58 39-94h81v-64h-77q-4.5-60-30-105c-18-30-43-54-75-73L581 0H402L251 201c-7-1-17-1-32-1H34v124h176q61.5 0 99 24c25 16 40 40 46 71H34v64h321c-6 31-21 55-46 71-25 15-58 23-99 23H34v123h547V577z" horiz-adv-x="605" unicode="₹"/><glyph d="M268 125h265V0H31v125h78v189H31v64h78v98q0 109.5 60 171c40 40 97 60 170 60 40 0 78-7 114-22 35-15 67-37 94-65l-60-120c-44 46-88 69-131 69-29 0-50-8-65-24s-23-40-23-72v-95h170v-64H268z" horiz-adv-x="557" unicode="£"/><glyph d="M1034 374H931l-16-54h109v-64H895L819 0H656L529 497 400 0H238l-76 256H31v64h112l-16 54H21v64h87L30 700h167l128-521 131 521h154l132-523 127 523h159l-78-262h84z" horiz-adv-x="1048" unicode="₩"/><glyph d="M672 700 466 317h145v-64H431l-14-27v-27h194v-64H417V0H259v135H65v64h194v23l-17 31H65v64h142L0 700h158l180-314 175 314z" horiz-adv-x="672" unicode="¥"/><glyph d="M271 274c0-35-11-64-32-86-22-23-50-34-84-34-33 0-61 11-82 34-22 23-33 51-33 86s11 63 33 85c21 22 49 33 82 33q51 0 84-33c21-22 32-50 32-85" horiz-adv-x="312" unicode="∙"/><glyph d="M290 812h130L98-112H-31z" horiz-adv-x="346" unicode="∕"/><glyph d="M473 377V275H302V106h-98v169H33v102h171v170h98V377z" horiz-adv-x="506" unicode="+"/><glyph d="M33 377h440V275H33z" horiz-adv-x="506" unicode="−"/><glyph d="M443 446 324 326l119-120-70-72-120 121-120-121-70 72 119 120L63 446l70 72 120-121 120 121z" horiz-adv-x="506" unicode="×"/></font>
</svg>
